Welcome Guest ( Log In | Register )

> Releases Upload / Добавление релизов

Добавить релиз тут / Click here to add release
Рекомендованные обменники / Recommended file shares

> Meillä Oli Vain Yö - Rehearsals 2012 [demo] (2019), Black Metal
post Aug 11 2019, 17:33:12
Post #1

Каждое ваше "Спасибо" помогает мне понять, что я делаю новости не напрасно.
***********
Group: Металариец
Posts: 1,892
Releases: 1654
From: Одесса
On Forums: 11 years 2 months
Thanks: 13941 time(s)
Ukraine


(IMG:http://metalarea.org/images/audiocovers/2019_Aug/acov_tid325588_thumb.jpg)

*Artist: Meillä Oli Vain Yö
*Album: Rehearsals 2012 [demo]
*Year: 2019
*Genre: Black Metal
*Country: Finland (IMG:http://metalarea.org/forum/style_images/flags/Finland.png)
*Format: mp3@CBR320kbps
*Size: 83MB

Tracklist:
1. Meillä oli vain Yö (Rehearsal 2012) 08:41 instrumental
2. Neppe (Abandoned track) 09:37 instrumental
3. Advaita (Rehearsal 2012) 09:22 instrumental
4. Alkutulenkantaja (Rehearsal 2012) 06:59 instrumental
******************************
Total playing time: 34:39



Technical info
(IMG:http://metalarea.org/images/spectrogram/2019_Aug/aa6d383bd8ba9017354ba4e86200177b.png)
Input File: 03. Advaita (Rehearsal 2012).mp3
Channels : 2
Sample Rate : 44100
Precision : 16-bit
Duration : 00:09:23.08 = 24831696 samples = 42230.8 CDDA sectors
File Size : 22.5M
Bit Rate : 320k
Sample Encoding: MPEG audio (layer I, II or III)
Comments :
Title=Advaita (Rehearsal 2012)
Artist=Meilla Oli Vain Yo
Album=Rehearsals 2012 (Demo)
Tracknumber=3
Year=2019
Genre=138



Register


Go to the top of the page
  Insert nick Quick quote
+Quote Post
 
Start new topic
Replies (1 - 2)
post Aug 13 2019, 11:36:14
Post #2

De Mysteriis Dom Sathanas
**************
Group: Металариец
Posts: 3,612
Releases: 63
From: Москва
On Forums: 11 years 1 month
Thanks: 3041 time(s)
Russian Federation


Так вроде ниче, но без вокала неинтересно
Go to the top of the page
  Insert nick Quick quote
+Quote Post
post Aug 13 2019, 19:37:40
Post #3

Detective Godzilla
Group Icon
Group: Moderation team
Posts: 3,073
Releases: 258
On Forums: 8 years 6 months
Thanks: 8888 time(s)
Russian Federation


RUSP73, У них для этого альбом есть. Очень хороший. В феврале вышел.
Go to the top of the page
  Insert nick Quick quote
+Quote Post

Reply to this topicStart new topic
2 User(s) are reading this topic (2 Guests and 0 Anonymous Users)
0 Members:

 



- Lo-Fi Version Support form
Copyrights and abuse reports form
Time is now: 17th August 2019 - 22:50:09