Welcome Guest ( Log In | Register )

> Releases Upload / Добавление релизов

Добавить релиз тут / Click here to add release
Рекомендованные обменники / Recommended file shares

> Volahn - El Tigre Del Sur [ep] (2019), Black Metal
post Aug 12 2019, 02:04:25
Post #1

Два Литра
**
Group: Завсегдатай
Posts: 143
Releases: 4
On Forums: 7 years 5 months
Thanks: 174 time(s)
Ukraine


(IMG:https://metalarea.org/images/audiocovers/2019_Aug/acov_tid325597_thumb.jpg)

*Artist: Volahn
*Album: El Tigre Del Sur [ep]
*Year: 2019
*Genre: Black Metal
*Country: United States (IMG:https://metalarea.org/forum/style_images/flags/United%20States.png)
*Format: mp3@CBR320kbps
*Size: 33MB

Tracklist:
01. El Tigre del Sur 14:11
******************************
Total playing time: 14:11


(IMG:https://metalarea.org/images/youtube.png)

Extended info
In 1911, in the town of Cuautla, a showdown between two opposing forces in the wild west took place. Igniting the beginning of a war that forever honored the story of a brave general. Ending in a dramatic battle to the end, the tiger of the south defines the legacy of a fierce warrior and the loyalty to his fatherland.

Lyrics:

Hijo del sol,
guerrero valiente,
contra los traicioneros,
extranjeros españoles.

El Tigre del Sur

Marcha de guerra a Cuautla,
contra el quinto de oro, ¡ataca!

Con rifle y espada,
asaltan la capital,
pistolas disparan,
soldados incendiados.

El Tigre del Sur

En nombre de la patria
¡Viva Zapata!

Ningún prisionero fue tomado
por ningún lado.

En nombre de la patria
¡Viva Zapata!

El quinto regimiento de caballería,
se retiró y Zapata tomó el control de la ciudad.

Héroe de nuestra nación,
descansa en paz,
mi gran general.

“Si ay cosas que no perdono,
eso se llama traición.”
¡lucha por tu tierra!

Héroe de nuestra nación,
descansa en paz,
mi gran general.

El Tigre del Sur


“Mi General Zapata”
Al pie de tu sepulcro,
mi General Zapata,
en nombre de la patria
yo te ofrendo una flor.

Valiente guerrillero,
bendito hijo del pueblo,
mi México te admira
y alaba tu valor.

También brindo mi canto
para tus generales,
aquellos hombres leales,
valientes como tú.

Para ellos una rosa,
a ti verdes laureles,
para seguirte fieles,
mi gran Jefe del Sur.

Descansa en paz
bajo el cielo que amaste,
donde vive tu frase de

¡Tierra y Libertad!

Allá por Chinameca,
donde te traicionaron,
tu sangre está brillando
como un rayo de sol.

Y tu nombre en la historia,
cubierto está de gloria,
con lágrimas de un pueblo
que te tributa honor.

Adiós celosa madre,
adiós Cuautla, Morelos,
la que guarda en sus senos
al hijo que la amó.

Adiós don Emiliano,
mi General Zapata,
en nombre de la Patria
recibe blanca flor.

Descansa en paz,
bajo el cielo que amaste,
donde vive tu frase de
¡Tierra y Libertad!


Technical info
(IMG:https://metalarea.org/images/spectrogram/2019_Aug/5656679be8a740cbbb6ae547e6a9fb83.png)
Input File: 01 El Tigre del Sur.mp3
Channels : 2
Sample Rate : 44100
Precision : 16-bit
Duration : 00:14:11.38 = 37545902 samples = 63853.6 CDDA sectors
File Size : 34.4M
Bit Rate : 323k
Sample Encoding: MPEG audio (layer I, II or III)
Comments :
Title=El Tigre del Sur
Artist=Volahn
Album=El Tigre del Sur
Tracknumber=1/1
Year=2019



Register


Go to the top of the page
  Insert nick Quick quote
+Quote Post
 
Start new topic
Replies (1 - 6)
post Aug 12 2019, 11:35:30
Post #2

Правь статус, ####!111
**************
Group: Металариец
Posts: 42,300
Releases: 638
On Forums: 10 years 2 months
Thanks: 33137 time(s)
Russian Federation


@320

Register


Register


Go to the top of the page
  Insert nick Quick quote
+Quote Post
post Aug 13 2019, 13:37:50
Post #3

Три Литра
***
Group: Завсегдатай
Posts: 288
Releases: 5
On Forums: 10 years 10 months
Thanks: 186 time(s)
Unknown


Обе части трека шикарны)

Волан всегда умеет удивить и выдать на своем звуке интересный материал.
Go to the top of the page
  Insert nick Quick quote
+Quote Post
post Aug 13 2019, 13:51:31
Post #4

Crush! Kill! Destroy!
**************
Group: Металариец
Posts: 4,995
Releases: 15
From: Kaliningrad
On Forums: 11 years 9 months
Thanks: 4574 time(s)
Russian Federation


Конгенитально!
Go to the top of the page
  Insert nick Quick quote
+Quote Post
post Aug 13 2019, 21:11:29
Post #5

Два Литра
**
Group: Завсегдатай
Posts: 143
Releases: 4
On Forums: 7 years 5 months
Thanks: 174 time(s)
Ukraine


This and Monarque - Jusqu'à La Mort [ep] (2019) were the best EPs of 2019 in my opinion. I thought Monarque's EP was undefeatable but I like Volahn's work even more. Hails!
Go to the top of the page
  Insert nick Quick quote
+Quote Post
post Aug 15 2019, 14:16:12
Post #6

Два Литра
**
Group: Завсегдатай
Posts: 137
Releases: 0
On Forums: 2 months 2 weeks
Thanks: 45 time(s)
Unknown


Ожидаемо очень круто!
Go to the top of the page
  Insert nick Quick quote
+Quote Post
post Aug 15 2019, 19:48:09
Post #7

De Mysteriis Dom Sathanas
**************
Group: Металариец
Posts: 3,612
Releases: 63
From: Москва
On Forums: 11 years 1 month
Thanks: 3041 time(s)
Russian Federation


Как-то никак..ни блэковая составляющая(так..пара моментов), ни мексиканские напевы
Go to the top of the page
  Insert nick Quick quote
+Quote Post

Reply to this topicStart new topic
2 User(s) are reading this topic (2 Guests and 0 Anonymous Users)
0 Members:

 



- Lo-Fi Version Support form
Copyrights and abuse reports form
Time is now: 17th August 2019 - 22:11:47