Welcome Guest ( Log In | Register )

> И неформату есть предел.

Рэп/хип-хоп/шансон/поп удаляются. Для них есть свои порталы.

> Jay Munly - Galvanized Yankee (1999), Gothic Americana/Death Country
post Aug 12 2019, 11:52:05
Post #1

Правь статус, ####!111
**************
Group: Металариец
Posts: 44,478
Releases: 687
On Forums: 10 years 6 months
Thanks: 35814 time(s)
Russian Federation


(IMG:http://metalarea.org/images/audiocovers/2019_Aug/acov_tid325607_thumb.jpg)

*Artist: Jay Munly
*Album: Galvanized Yankee
*Year: 1999
*Genre: Gothic Americana/Death Country
*Country: United States (IMG:http://metalarea.org/forum/style_images/flags/United%20States.png)
*Format: mp3@CBR320kbps
*Size: 85MB

Tracklist:
1. Funeral Blues
2. All Men Are Divine
3. Pretty Saro
4. Death Ain’t You Got No Shame
5. The Why And The Wherefore
6. Who Will Care For Mother Now?
7. A Long Time Ago
8. Cluck Old Hen
9. Virgin Of Manhattan
10. Marching Along
11. Parting Glass
12. Math Made Easy
******************************
Total playing time: 38:06

(IMG:http://metalarea.org/images/youtube.png)

Technical info
(IMG:http://metalarea.org/images/spectrogram/2019_Aug/ed970a7cb85605e54a87b3bd580f7211.png)
Input File: 01. Funeral Blues.mp3
Channels : 2
Sample Rate : 44100
Precision : 16-bit
Duration : 00:02:38.05 = 6970093 samples = 11853.9 CDDA sectors
File Size : 6.33M
Bit Rate : 320k
Sample Encoding: MPEG audio (layer I, II or III)
Comments :
Title=Funeral Blues
Artist=Jay Munly
Album=Galvanized Yankee
Tracknumber=1
Year=1999



Register


Go to the top of the page
  Insert nick Quick quote
+Quote Post
 
Start new topic
Replies (1 - 4)
post Aug 13 2019, 13:07:08
Post #2

Правь статус, ####!111
**************
Group: Металариец
Posts: 44,478
Releases: 687
On Forums: 10 years 6 months
Thanks: 35814 time(s)
Russian Federation


Преотличнейший мрачняк.


Thanks:
(1) KKK1488,
Go to the top of the page
  Insert nick Quick quote
+Quote Post
post Aug 14 2019, 20:46:19
Post #3

Правь статус, ####!111
**************
Group: Металариец
Posts: 44,478
Releases: 687
On Forums: 10 years 6 months
Thanks: 35814 time(s)
Russian Federation


Кому вкатило - на рутрекере есть полная диско сего дяди. (IMG:style_emoticons/default/20.gif)
Go to the top of the page
  Insert nick Quick quote
+Quote Post
post Aug 16 2019, 06:40:38
Post #4

sycamore trees
**************
Group: Металариец
Posts: 3,171
Releases: 0
On Forums: 3 years 10 months
Thanks: 1929 time(s)
Unknown


ЦИТАТА(vosmidesijatye @ 13th August 2019 - 17:07:08) *
мрачняк

замечен не был.
Go to the top of the page
  Insert nick Quick quote
+Quote Post
post Aug 16 2019, 10:18:38
Post #5

Правь статус, ####!111
**************
Group: Металариец
Posts: 4,292
Releases: 0
From: Одесса
On Forums: 11 years 9 months
Thanks: 2552 time(s)
Unknown


Go to the top of the page
  Insert nick Quick quote
+Quote Post

Reply to this topicStart new topic
1 User(s) are reading this topic (1 Guests and 0 Anonymous Users)
0 Members:

 



- Lo-Fi Version Support form
Copyrights and abuse reports form
Time is now: 8th December 2019 - 16:36:00