Welcome Guest ( Log In | Register )

> Releases Upload / Добавление релизов

Добавить релиз тут / Click here to add release
Рекомендованные обменники / Recommended file shares

> The Crypt - Odal (2019), Death Metal
post Aug 13 2019, 11:19:34
Post #1

Правь статус, ####!111
**************
Group: Металариец
Posts: 18,116
Releases: 12251
From: Г.Харьков
On Forums: 7 years 3 months
Thanks: 206368 time(s)
Unknown


(IMG:http://metalarea.org/images/audiocovers/2019_Aug/acov_tid325642_thumb.jpg)

*Artist: The Crypt
*Album: Odal
*Year: 2019
*Genre: Death Metal
*Country: United States (IMG:http://metalarea.org/forum/style_images/flags/United%20States.png)
*Format: mp3@CBR320kbps
*Size: 137MB

Tracklist:
1. Да Будет Хаос 02:06 instrumental
2. The Lost Magics 12:14
3. Sirens of the Absu 08:38
4. Quest Without End 04:25
5. I Turn My Back 11:01
6. Palace of Broken Dreams 08:51
7. Under Black Sails 07:24
8. Moonlight 04:37
******************************
Total playing time: 59:16



Extended info
Aaron Fischer: Lead guitars
Adam Haste: Lead guitars/keyboards/backing vocals
Skyler Champeau: Vocals
Nate Yuggoth: Bass/acoustic guitars/backing vocals


Technical info
(IMG:http://metalarea.org/images/spectrogram/2019_Aug/8c3ae785816ce62f9064ecda939e92a1.png)
Input File: 03 - Sirens of the Absu (feat. Leeloo).mp3
Channels : 2
Sample Rate : 44100
Precision : 16-bit
Duration : 00:08:38.14 = 22850018 samples = 38860.6 CDDA sectors
File Size : 21.0M
Bit Rate : 324k
Sample Encoding: MPEG audio (layer I, II or III)
Comments :
Title=Sirens of the Absu (feat. Leeloo)
Artist=The Crypt; Leeloo
Album=Odal
Tracknumber=3
Year=2019



Register


Go to the top of the page
  Insert nick Quick quote
+Quote Post
 
Start new topic
Replies (1 - 5)
post Aug 13 2019, 19:54:54
Post #2

Правь статус, ####!111
**************
Group: Металариец
Posts: 18,116
Releases: 12251
From: Г.Харьков
On Forums: 7 years 3 months
Thanks: 206368 time(s)
Unknown


Cloud Mail 320
Register
Go to the top of the page
  Insert nick Quick quote
+Quote Post
post Aug 13 2019, 20:23:44
Post #3

MDM-Thrash Metal
**************
Group: Металариец
Posts: 8,521
Releases: 561
From: Одесса
On Forums: 12 years 1 week
Thanks: 16520 time(s)
Ukraine


ЦИТАТА(Samaritianin @ Aug 13 2019, 13:19:34) *
*Genre: Death Metal

Realy???????????????? (IMG:style_emoticons/default/1488.gif)
Ты бы сабж послушал сперва, нежели такую стилистику указывать!!!
Мда....дез метал....там таковым даже и не пахнет!
Редкостная шляпа! (IMG:style_emoticons/default/6.gif)
Go to the top of the page
  Insert nick Quick quote
+Quote Post
post Aug 14 2019, 09:54:50
Post #4

hearer & reader
**************
Group: Металариец
Posts: 7,947
Releases: 103
From: Moscow
On Forums: 11 years 11 months
Thanks: 7450 time(s)
Russian Federation


ЦИТАТА
An experiment in heavy metal forged by dreams in the cold deep
Go to the top of the page
  Insert nick Quick quote
+Quote Post
post Aug 14 2019, 11:02:09
Post #5

MDM-Thrash Metal
**************
Group: Металариец
Posts: 8,521
Releases: 561
From: Одесса
On Forums: 12 years 1 week
Thanks: 16520 time(s)
Ukraine


Ептиль, но сабж просто МУТЬ несусветная!
Даже в страшном сне такого не представишь. А еще под вывеской дез метал...
Go to the top of the page
  Insert nick Quick quote
+Quote Post
post Aug 14 2019, 11:56:02
Post #6

кручу наждак
**************
Group: Металариец
Posts: 4,000
Releases: 96
From: Самара
On Forums: 9 years 3 months
Thanks: 2970 time(s)
Russian Federation


Ну косячнул релизер с жанром, ничего страшного, бывает. Слушать все, что выкладываешь, - жизни не хватит.
По сабжу. Спокойная, ненапряжная, фоновая музыка. Я бы назвал это пост-думом.
В 4 треке поют на чистейшем, без акцента, русском языке.


Thanks:
(1) Occultas,
Go to the top of the page
  Insert nick Quick quote
+Quote Post

Reply to this topicStart new topic
2 User(s) are reading this topic (2 Guests and 0 Anonymous Users)
0 Members:

 



- Lo-Fi Version Support form
Copyrights and abuse reports form
Time is now: 17th August 2019 - 21:35:35