Welcome Guest ( Log In | Register )

> Releases Upload / Добавление релизов

Добавить релиз тут / Click here to add release
Рекомендованные обменники / Recommended file shares

> Brainsludge - Black Pit Of Despair (2019), Blackened Death Metal
post Aug 13 2019, 11:32:28
Post #1

Правь статус, ####!111
**************
Group: Металариец
Posts: 18,117
Releases: 12251
From: Г.Харьков
On Forums: 7 years 3 months
Thanks: 206369 time(s)
Unknown


(IMG:http://metalarea.org/images/audiocovers/2019_Aug/acov_tid325643_thumb.jpg)

*Artist: Brainsludge
*Album: Black Pit Of Despair
*Year: 2019
*Genre: Blackened Death Metal
*Country: United States (IMG:http://metalarea.org/forum/style_images/flags/United%20States.png)
*Format: mp3@CBR320kbps
*Size: 69MB

Tracklist:
1. In The Beginning.... 02:05
2. Veidturnvg 03:55
3. Jeg Dreper Meg Selv 02:46
4. S.L.U.D.G.E m407 03:46
5. Odin's Opus 06:04
6. Dance With Me Under The Bleeding Moon 04:06
7. Cataclysmic Noise Terror 03:11
8. Cannibalistic Embodiment 02:40
9. In The End.... 01:23
******************************
Total playing time: 29:56



Extended info
Graham Conway: Vocals, guitars, bass, synths, keyboards, drums
Stephanie Howe: Guest vocals on Odin's Opus


Technical info
(IMG:http://metalarea.org/images/spectrogram/2019_Aug/0b3d650707d23a742467310efc6d9f41.png)
Input File: 02 - Veidturnvg.mp3
Channels : 2
Sample Rate : 44100
Precision : 16-bit
Duration : 00:03:55.98 = 10406586 samples = 17698.3 CDDA sectors
File Size : 9.71M
Bit Rate : 329k
Sample Encoding: MPEG audio (layer I, II or III)
Comments :
Title=Veidturnvg
Artist=Brainsludge
Album=Black Pit of Despair
Tracknumber=2
Year=2019



Register


Go to the top of the page
  Insert nick Quick quote
+Quote Post
 
Start new topic
Replies (1 - 1)
post Aug 13 2019, 20:00:19
Post #2

Правь статус, ####!111
**************
Group: Металариец
Posts: 18,117
Releases: 12251
From: Г.Харьков
On Forums: 7 years 3 months
Thanks: 206369 time(s)
Unknown


Cloud Mail 320
Register
Go to the top of the page
  Insert nick Quick quote
+Quote Post

Reply to this topicStart new topic
2 User(s) are reading this topic (2 Guests and 0 Anonymous Users)
0 Members:

 



- Lo-Fi Version Support form
Copyrights and abuse reports form
Time is now: 17th August 2019 - 22:28:39