Welcome Guest ( Log In | Register )

> Releases Upload / Добавление релизов

Добавить релиз тут / Click here to add release
Рекомендованные обменники / Recommended file shares

> Sickbay - Dissonance (2019), Death Metal
post Aug 13 2019, 11:50:07
Post #1

Правь статус, ####!111
**************
Group: Металариец
Posts: 18,117
Releases: 12251
From: Г.Харьков
On Forums: 7 years 3 months
Thanks: 206368 time(s)
Unknown


(IMG:http://metalarea.org/images/audiocovers/2019_Aug/acov_tid325644_thumb.jpg)

*Artist: Sickbay
*Album: Dissonance
*Year: 2019
*Genre: Death Metal
*Country: United States (IMG:http://metalarea.org/forum/style_images/flags/United%20States.png)
*Format: mp3@CBR320kbps
*Size: 63MB

Tracklist:
1. Pandemic 03:19
2. Scourge 02:19
3. Bloodsoaked 03:16
4. Dead Stare Gaze 03:38
5. Found Dead 03:20
6. Gallows 03:11
7. First Stone 02:54
8. Roman Myth 03:14
******************************
Total playing time: 25:11




Extended info
Joe Merando Drums
Jim Sinon Guitars
Tom Peluso Vocal, Bass
See also: ex-Bedlam


Technical info
(IMG:http://metalarea.org/images/spectrogram/2019_Aug/ea0bcbcf208c80907172c0d2fe887c63.png)
Input File: 03 - Bloodsoaked.mp3
Channels : 2
Sample Rate : 44100
Precision : 16-bit
Duration : 00:03:16.82 = 8679762 samples = 14761.5 CDDA sectors
File Size : 8.30M
Bit Rate : 337k
Sample Encoding: MPEG audio (layer I, II or III)
Comments :
Title=Bloodsoaked
Artist=Sickbay
Album=Dissonance
Tracknumber=3
Year=2019
Genre=Death Metal
Discnumber=1



Register


Go to the top of the page
  Insert nick Quick quote
+Quote Post
 
Start new topic
Replies (1 - 3)
post Aug 13 2019, 20:03:46
Post #2

Правь статус, ####!111
**************
Group: Металариец
Posts: 18,117
Releases: 12251
From: Г.Харьков
On Forums: 7 years 3 months
Thanks: 206368 time(s)
Unknown


Cloud Mail 320
Register
Go to the top of the page
  Insert nick Quick quote
+Quote Post
post Aug 14 2019, 15:02:37
Post #3

Три Литра
***
Group: Завсегдатай
Posts: 281
Releases: 0
On Forums: 8 years 11 months
Thanks: 50 time(s)
Russian Federation


кроме ударника ничего особенного
Go to the top of the page
  Insert nick Quick quote
+Quote Post
post Aug 14 2019, 15:03:13
Post #4

Правь статус, ####!111
**************
Group: Металариец
Posts: 42,300
Releases: 638
On Forums: 10 years 2 months
Thanks: 33137 time(s)
Russian Federation


Обложка еще неплоха.
Go to the top of the page
  Insert nick Quick quote
+Quote Post

Reply to this topicStart new topic
2 User(s) are reading this topic (2 Guests and 0 Anonymous Users)
0 Members:

 



- Lo-Fi Version Support form
Copyrights and abuse reports form
Time is now: 17th August 2019 - 21:42:58