Welcome Guest ( Log In | Register )

> Releases Upload / Добавление релизов

Добавить релиз тут / Click here to add release
Рекомендованные обменники / Recommended file shares

> Chaotic Justice - The Lift Of Chaos (2019), Heavy/Thrash Metal
post Aug 13 2019, 12:50:21
Post #1

Правь статус, ####!111
**************
Group: Металариец
Posts: 18,117
Releases: 12251
From: Г.Харьков
On Forums: 7 years 3 months
Thanks: 206368 time(s)
Unknown


(IMG:http://metalarea.org/images/audiocovers/2019_Aug/acov_tid325646_thumb.jpg)

*Artist: Chaotic Justice
*Album: The Lift Of Chaos
*Year: 2019
*Genre: Heavy/Thrash Metal
*Country: Canada (IMG:http://metalarea.org/forum/style_images/flags/Canada.png)
*Format: mp3@CBR320kbps
*Size: 66MB

Tracklist:
1. Against All Odds
2. Beyond The Curve
3. Hair Trigger
4. Tranquilizer
5. All Who Betray
6. Justice
7. I Ain't Livin' Long Like This
******************************
Total playing time: 28:46

(IMG:http://metalarea.org/images/youtube.png)


Technical info
(IMG:http://metalarea.org/images/spectrogram/2019_Aug/419bcbc05123f632a96b78143c51fc72.png)
Input File: 03 - Hair Trigger.mp3
Channels : 2
Sample Rate : 44100
Precision : 16-bit
Duration : 00:04:02.43 = 10691119 samples = 18182.2 CDDA sectors
File Size : 9.76M
Bit Rate : 322k
Sample Encoding: MPEG audio (layer I, II or III)
Comments :
Title=Hair Trigger
Artist=Chaotic Justice
Album=The Lift of Chaos
Tracknumber=3
Year=2019



Register


Go to the top of the page
  Insert nick Quick quote
+Quote Post
 
Start new topic
Replies (1 - 1)
post Aug 13 2019, 19:51:20
Post #2

Правь статус, ####!111
**************
Group: Металариец
Posts: 18,117
Releases: 12251
From: Г.Харьков
On Forums: 7 years 3 months
Thanks: 206368 time(s)
Unknown


Cloud Mail 320
Register
Go to the top of the page
  Insert nick Quick quote
+Quote Post

Reply to this topicStart new topic
2 User(s) are reading this topic (2 Guests and 0 Anonymous Users)
0 Members:

 



- Lo-Fi Version Support form
Copyrights and abuse reports form
Time is now: 17th August 2019 - 21:52:56