Welcome Guest ( Log In | Register )

> Releases Upload / Добавление релизов

Добавить релиз тут / Click here to add release
Рекомендованные обменники / Recommended file shares

 
Reply to this topicStart new topic
> Absolution Denied - Absolution Denied (2019), Melodic Death Metal
post Aug 13 2019, 12:54:21
Post #1

Serial Uploader
Group Icon
Group: V.I.P
Posts: 35,814
Releases: 34022
From: Lithuania
On Forums: 11 years 2 months
Thanks: 393046 time(s)
Lithuania


(IMG:https://metalarea.org/images/audiocovers/2019_Aug/acov_tid325647_thumb.jpg)

*Artist: Absolution Denied
*Album: Absolution Denied
*Year: 2019
*Genre: Melodic Death Metal
*Country: Colombia (IMG:https://metalarea.org/forum/style_images/flags/Colombia.png)
*Format: mp3@CBR320kbps
*Size: 92MB

Tracklist:
01. Intro 00:55
02. Siglos de aflicción 04:02
03. Litanies of the Damned 03:49
04. Beyond Desolation 02:30
05. Byte 03:34
06. The Purge 02:45
07. Outrage 04:24
08. Cisma 01:50
09. Virus 03:39
10. The Colony 04:49
11. My Darkest Days 03:49
******************************
Total playing time: 36:06

(IMG:https://metalarea.org/images/myspace.png)





Technical info
(IMG:https://metalarea.org/images/spectrogram/2019_Aug/adc274765b73b62d80b8e3045371ed7f.png)
Input File: Absolution Denied - Absolution Denied - 02 Siglos de Aflicci__n.mp3
Channels : 2
Sample Rate : 44100
Precision : 16-bit
Duration : 00:04:02.87 = 10710699 samples = 18215.5 CDDA sectors
File Size : 9.89M
Bit Rate : 326k
Sample Encoding: MPEG audio (layer I, II or III)
Comments :
Title=Siglos de Aflicción
Artist=Absolution Denied
Album=Absolution Denied
Tracknumber=2
Year=2019



Register


Go to the top of the page
  Insert nick Quick quote
+Quote Post

Reply to this topicStart new topic
1 User(s) are reading this topic (1 Guests and 0 Anonymous Users)
0 Members:

 



- Lo-Fi Version Support form
Copyrights and abuse reports form
Time is now: 17th August 2019 - 22:46:39