Welcome Guest ( Log In | Register )

> Releases Upload / Добавление релизов

Добавить релиз тут / Click here to add release
Рекомендованные обменники / Recommended file shares

 
Reply to this topicStart new topic
> Demonseed - Romance [ep] (2019), Death Metal
post Aug 13 2019, 13:13:41
Post #1

Правь статус, ####!111
**************
Group: Металариец
Posts: 18,117
Releases: 12251
From: Г.Харьков
On Forums: 7 years 3 months
Thanks: 206368 time(s)
Unknown


(IMG:http://metalarea.org/images/audiocovers/2019_Aug/acov_tid325648_thumb.jpg)

*Artist: Demonseed
*Album: Romance [ep]
*Year: 2019
*Genre: Death Metal
*Country: United States (IMG:http://metalarea.org/forum/style_images/flags/United%20States.png)
*Format: mp3@CBR320kbps
*Size: 24MB

Tracklist:
01. Pyramid of Severed Heads 03:29
02. Chunks of Pretty Flesh 03:22
03. Humiliation Upon the Frailty of the Human Condition 03:46
******************************
Total playing time: 10:37



Extended info
John Trammell Bass
See also: Astyanax (live), Prophecy (live), Necrosis, ex-I Am Destruction, ex-Ebola Zaire, ex-Maniacal
Anthony Walker Drums
See also: Life of Scars, ex-Amoricide, ex-Unchecked Aggression, ex-Vitality, ex-Hammer Witch, Motorbreath, ex-Interment, ex-Prophecy, ex-Alcohollica (USA), ex-Creophagy
Bob Vanover III Guitars
See also: ex-Blood Stain Carpet, ex-Jackson Bros.
Carlos Casillas Guitars (lead)
Chase Nunn Vocals
See also: ex-Ebola Zaire, ex-Primordius, ex-Asphyxiation Infecta (live), ex-Maniacal


Technical info
(IMG:http://metalarea.org/images/spectrogram/2019_Aug/025511cd8378cb6a7cab9ebc8b1ba6e5.png)
Input File: 02 - Chunks of Pretty Flesh.mp3
Channels : 2
Sample Rate : 44100
Precision : 16-bit
Duration : 00:03:22.12 = 8913492 samples = 15159 CDDA sectors
File Size : 8.19M
Bit Rate : 324k
Sample Encoding: MPEG audio (layer I, II or III)
Comments :
Title=Chunks of Pretty Flesh
Artist=Demonseed
Album=Romance
Tracknumber=2
Year=2019
Genre=Metal
Discnumber=1



Register


Go to the top of the page
  Insert nick Quick quote
+Quote Post

Reply to this topicStart new topic
1 User(s) are reading this topic (1 Guests and 0 Anonymous Users)
0 Members:

 



- Lo-Fi Version Support form
Copyrights and abuse reports form
Time is now: 17th August 2019 - 22:00:10