Welcome Guest ( Log In | Register )

 
Reply to this topicStart new topic
> Louis Nas' Ominous Conclusions - Prequel (2019), Instrumental/Progressive Metal
post Aug 13 2019, 13:34:24
Post #1

Serial Uploader
Group Icon
Group: V.I.P
Posts: 36,586
Releases: 34775
From: Lithuania
On Forums: 11 years 6 months
Thanks: 407153 time(s)
Lithuania


(IMG:https://metalarea.org/images/audiocovers/2019_Aug/acov_tid325649_thumb.jpg)

*Artist: Louis Nas' Ominous Conclusions
*Album: Prequel
*Year: 2019
*Genre: Instrumental/Progressive Metal
*Country: France (IMG:https://metalarea.org/forum/style_images/flags/France.png)
*Format: mp3@CBR320kbps
*Size: 71MB

Tracklist:
01. Mind Control Facility 04:29
02. A Heart for Two 03:57
03. Ishtar's Temple - A Divine Beauty Dwells Within 06:44
04. Absolute Zero 04:37
05. Prequel 09:24
06. Eclosion 01:40
******************************
Total playing time: 30:51



(IMG:https://metalarea.org/images/youtube.png)

Technical info
(IMG:https://metalarea.org/images/spectrogram/2019_Aug/c08a2728572e07c3fd07934e71760ad5.png)
Input File: 02. A Heart for Two (feat. Adrien Brunet).mp3
Channels : 2
Sample Rate : 44100
Precision : 16-bit
Duration : 00:03:57.52 = 10474676 samples = 17814.1 CDDA sectors
File Size : 9.63M
Bit Rate : 324k
Sample Encoding: MPEG audio (layer I, II or III)
Comments :
Title=A Heart for Two (feat. Adrien Brunet)
Artist=Louis Nas Ominous Conclusions
Album=Prequel
Tracknumber=2/6
Year=2019
Genre=9
Discnumber=1/1



Register


Go to the top of the page
  Insert nick Quick quote
+Quote Post

Reply to this topicStart new topic
1 User(s) are reading this topic (1 Guests and 0 Anonymous Users)
0 Members:

 



- Lo-Fi Version Support form
Copyrights and abuse reports form
Time is now: 8th December 2019 - 18:12:51