Welcome Guest ( Log In | Register )

> The Echogenic - Into The Shepherd's Maw [ep] (2019), Instrumental/Progressive Metal
post Aug 13 2019, 13:44:56
Post #1

Serial Uploader
Group Icon
Group: V.I.P
Posts: 36,586
Releases: 34775
From: Lithuania
On Forums: 11 years 6 months
Thanks: 407144 time(s)
Lithuania


(IMG:https://metalarea.org/images/audiocovers/2019_Aug/acov_tid325650_thumb.jpg)

*Artist: The Echogenic
*Album: Into The Shepherd's Maw [ep]
*Year: 2019
*Genre: Instrumental/Progressive Metal
*Country: United States (IMG:https://metalarea.org/forum/style_images/flags/United%20States.png)
*Format: mp3@CBR320kbps
*Size: 68MB

Tracklist:
01. Sworn Traveler 02:39
02. Chasing Your Ghost 08:31
03. Maw I: A Futile Journey 07:38
04. Maw II: Shepherd's Call 01:52
05. Churning Cathedral 01:45
06. Prison of a Billion Minds 05:12
******************************
Total playing time: 27:37


(IMG:https://metalarea.org/images/youtube.png)

Technical info
(IMG:https://metalarea.org/images/spectrogram/2019_Aug/01ef48aab893396ea411d15f456aa19e.png)
Input File: 02. Chasing Your Ghost.mp3
Channels : 2
Sample Rate : 44100
Precision : 16-bit
Duration : 00:08:31.90 = 22574790 samples = 38392.5 CDDA sectors
File Size : 21.2M
Bit Rate : 331k
Sample Encoding: MPEG audio (layer I, II or III)
Comments :
Title=Chasing Your Ghost
Artist=The Echogenic
Album=Into the Shepherd's Maw
Tracknumber=2/6
Year=2019



Register


Go to the top of the page
  Insert nick Quick quote
+Quote Post
 
Start new topic
Replies (1 - 1)
post Aug 15 2019, 16:04:12
Post #2

Четыре Литра
****
Group: Металариец
Posts: 342
Releases: 0
From: Сибирь
On Forums: 8 years 9 months
Thanks: 112 time(s)
Russian Federation


Go to the top of the page
  Insert nick Quick quote
+Quote Post

Reply to this topicStart new topic
1 User(s) are reading this topic (1 Guests and 0 Anonymous Users)
0 Members:

 



- Lo-Fi Version Support form
Copyrights and abuse reports form
Time is now: 8th December 2019 - 16:36:14