Welcome Guest ( Log In | Register )

> Releases Upload / Добавление релизов

Добавить релиз тут / Click here to add release
Рекомендованные обменники / Recommended file shares

 
Reply to this topicStart new topic
> Saarim Tashfeen - Isolation [ep] (2019), Instrumental/Progressive Metal
post Aug 13 2019, 13:53:13
Post #1

Serial Uploader
Group Icon
Group: V.I.P
Posts: 35,814
Releases: 34022
From: Lithuania
On Forums: 11 years 2 months
Thanks: 393045 time(s)
Lithuania


(IMG:https://metalarea.org/images/audiocovers/2019_Aug/acov_tid325651_thumb.jpg)

*Artist: Saarim Tashfeen
*Album: Isolation [ep]
*Year: 2019
*Genre: Instrumental/Progressive Metal
*Country: United States (IMG:https://metalarea.org/forum/style_images/flags/United%20States.png)
*Format: mp3@CBR320kbps
*Size: 61MB

Tracklist:
01. Adrenaline
02. Deserted
03. Extremity
04. In the Midst of Chaos
05. Violet
******************************
Total playing time: 26:37


(IMG:https://metalarea.org/images/youtube.png)

Technical info
(IMG:https://metalarea.org/images/spectrogram/2019_Aug/335cfb492ef10cbcfb346c816522c6ab.png)
Input File: 02. Deserted.mp3
Channels : 2
Sample Rate : 44100
Precision : 16-bit
Duration : 00:06:09.03 = 16274179 samples = 27677.2 CDDA sectors
File Size : 14.8M
Bit Rate : 321k
Sample Encoding: MPEG audio (layer I, II or III)
Comments :
Title=Deserted
Artist=Saarim Tashfeen
Album=Isolation
Tracknumber=2/5
Year=2019
Genre=9
Discnumber=1/1



Register


Go to the top of the page
  Insert nick Quick quote
+Quote Post

Reply to this topicStart new topic
1 User(s) are reading this topic (1 Guests and 0 Anonymous Users)
0 Members:

 



- Lo-Fi Version Support form
Copyrights and abuse reports form
Time is now: 17th August 2019 - 22:33:01