Welcome Guest ( Log In | Register )

 
Reply to this topicStart new topic
> Nick Hill - Ample Chattels [ep] (2019), Instrumental/Progressive Metal
post Aug 13 2019, 14:03:14
Post #1

Serial Uploader
Group Icon
Group: V.I.P
Posts: 36,586
Releases: 34775
From: Lithuania
On Forums: 11 years 6 months
Thanks: 407144 time(s)
Lithuania


(IMG:https://metalarea.org/images/audiocovers/2019_Aug/acov_tid325652_thumb.jpg)

*Artist: Nick Hill
*Album: Ample Chattels [ep]
*Year: 2019
*Genre: Instrumental/Progressive Metal
*Country: United States (IMG:https://metalarea.org/forum/style_images/flags/United%20States.png)
*Format: mp3@CBR320kbps
*Size: 71MB

Tracklist:
01. Intro 01:47
02. Heavy as Heavy 06:25
03. Simplicity 05:50
04. Beautiful Burden 05:42
05. From Another Time 03:28
06. This is the End 07:46
******************************
Total playing time: 30:58




Technical info
(IMG:https://metalarea.org/images/spectrogram/2019_Aug/1a3c16c7a1e2464e3860c740566bf058.png)
Input File: 02. Heavy as Heavy.mp3
Channels : 2
Sample Rate : 44100
Precision : 16-bit
Duration : 00:06:25.49 = 16999977 samples = 28911.5 CDDA sectors
File Size : 15.5M
Bit Rate : 321k
Sample Encoding: MPEG audio (layer I, II or III)
Comments :
Title=Heavy as Heavy
Artist=Nick Hill
Album=Ample Chattels
Tracknumber=2/6
Year=2019
Genre=9
Discnumber=1/1



Register


Go to the top of the page
  Insert nick Quick quote
+Quote Post

Reply to this topicStart new topic
1 User(s) are reading this topic (1 Guests and 0 Anonymous Users)
0 Members:

 



- Lo-Fi Version Support form
Copyrights and abuse reports form
Time is now: 8th December 2019 - 16:36:26