Welcome Guest ( Log In | Register )

> Releases Upload / Добавление релизов

Добавить релиз тут / Click here to add release
Рекомендованные обменники / Recommended file shares

 
Reply to this topicStart new topic
> Monolith - Fight/Flight [ep] (2019), Instrumental/Progressive Metal (D)
post Aug 13 2019, 14:14:39
Post #1

Serial Uploader
Group Icon
Group: V.I.P
Posts: 36,132
Releases: 34331
From: Lithuania
On Forums: 11 years 3 months
Thanks: 398158 time(s)
Lithuania


(IMG:https://metalarea.org/images/audiocovers/2019_Aug/acov_tid325653_thumb.png)

*Artist: Monolith
*Album: Fight/Flight [ep]
*Year: 2019
*Genre: Instrumental/Progressive Metal
*Country: United Kingdom (IMG:https://metalarea.org/forum/style_images/flags/United%20Kingdom.png)
*Format: mp3@CBR320kbps
*Size: 54MB

Tracklist:
01. In Fields of Grayscale 03:30
02. Astral Odyssey 03:54
03. First Blood 04:04
04. Return to the Fold 04:04
05. Fracture 03:51
06. Delirium 04:12
******************************
Total playing time: 23:35


(IMG:https://metalarea.org/images/youtube.png)

Technical info
(IMG:https://metalarea.org/images/spectrogram/2019_Aug/e4a612f52d3cfe2ca5a1a76bc7cc8c87.png)
Input File: 02. Astral Odyssey.mp3
Channels : 2
Sample Rate : 44100
Precision : 16-bit
Duration : 00:03:54.07 = 10322619 samples = 17555.5 CDDA sectors
File Size : 9.40M
Bit Rate : 321k
Sample Encoding: MPEG audio (layer I, II or III)
Comments :
Title=Astral Odyssey
Artist=Monolith
Album=Fight/Flight
Tracknumber=2/6
Year=2019
Genre=9
Discnumber=1/1



Register


Go to the top of the page
  Insert nick Quick quote
+Quote Post

Reply to this topicStart new topic
1 User(s) are reading this topic (1 Guests and 0 Anonymous Users)
0 Members:

 



- Lo-Fi Version Support form
Copyrights and abuse reports form
Time is now: 20th September 2019 - 09:01:59