Welcome Guest ( Log In | Register )

> Releases Upload / Добавление релизов

Добавить релиз тут / Click here to add release
Рекомендованные обменники / Recommended file shares

> Deadwood Lake - Immortalised In Death (2019), Melodic/Atmospheric Black Metal
post Aug 13 2019, 14:25:46
Post #1

Правь статус, ####!111
**************
Group: Металариец
Posts: 18,117
Releases: 12251
From: Г.Харьков
On Forums: 7 years 3 months
Thanks: 206368 time(s)
Unknown


(IMG:http://metalarea.org/images/audiocovers/2019_Aug/acov_tid325654_thumb.jpg)

*Artist: Deadwood Lake
*Album: Immortalised In Death
*Year: 2019
*Genre: Melodic/Atmospheric Black Metal
*Country: United Kingdom (IMG:http://metalarea.org/forum/style_images/flags/United%20Kingdom.png)
*Format: mp3@CBR320kbps
*Size: 111MB

Tracklist:
1. Visions from the Faded Years 05:53
2. The March of Time 04:41
3. Immortalised in Death 06:18
4. Guidance 06:37
5. My Ashes Will Remain 05:21
6. Alone I Fly 08:18
7. Drowning Reality 05:02
8. Vigils 07:14
******************************
Total playing time: 49:24




Extended info
Ryan Wills Guitars
See also: Wolves in Exile
Bruce Powell Vocals, Bass
See also: Reign of Perdition, ex-Exokill
Tom Warren Vocals, Drums
See also: Reign of Perdition, ex-Exokill


Technical info
(IMG:http://metalarea.org/images/spectrogram/2019_Aug/dfb3fdc9ea884c4a6db58c4133f2645f.png)
Input File: 03 Immortalised In Death.mp3
Channels : 2
Sample Rate : 44100
Precision : 16-bit
Duration : 00:06:18.17 = 16677385 samples = 28362.9 CDDA sectors
File Size : 15.1M
Bit Rate : 320k
Sample Encoding: MPEG audio (layer I, II or III)
Comments :
Title=Immortalised In Death
Artist=Deadwood Lake
Album=Immortalised In Death
Tracknumber=3
Year=2019
Genre=Black Metal



Register


Go to the top of the page
  Insert nick Quick quote
+Quote Post
 
Start new topic
Replies (1 - 1)
post Aug 13 2019, 19:49:17
Post #2

Правь статус, ####!111
**************
Group: Металариец
Posts: 18,117
Releases: 12251
From: Г.Харьков
On Forums: 7 years 3 months
Thanks: 206368 time(s)
Unknown


Cloud Mail 320
Register


Thanks:
Go to the top of the page
  Insert nick Quick quote
+Quote Post

Reply to this topicStart new topic
1 User(s) are reading this topic (1 Guests and 0 Anonymous Users)
0 Members:

 



- Lo-Fi Version Support form
Copyrights and abuse reports form
Time is now: 17th August 2019 - 21:57:23