Welcome Guest ( Log In | Register )

 
Reply to this topicStart new topic
> SlavEyes - Disaster Myopia [ep] (2019), Progressive/Groove Metal
post Aug 13 2019, 14:29:03
Post #1

Serial Uploader
Group Icon
Group: V.I.P
Posts: 36,586
Releases: 34775
From: Lithuania
On Forums: 11 years 6 months
Thanks: 407152 time(s)
Lithuania


(IMG:https://metalarea.org/images/audiocovers/2019_Aug/acov_tid325655_thumb.jpg)

*Artist: SlavEyes
*Album: Disaster Myopia [ep]
*Year: 2019
*Genre: Progressive/Groove Metal
*Country: France (IMG:https://metalarea.org/forum/style_images/flags/France.png)
*Format: mp3@CBR320kbps
*Size: 54MB

Tracklist:
01. Disaster Myopia 05:25
02. Wakeful Forerunner 05:51
03. Don't Trust Anyone Feat. Flo (Smash hit combo) 03:20
04. Beyond The Turmoil 03:41
05. Blood Currency 05:19
******************************
Total playing time: 23:36



(IMG:https://metalarea.org/images/youtube.png)

Technical info
(IMG:https://metalarea.org/images/spectrogram/2019_Aug/a5dbb0b2de5a8920b0a96f2b41e553fd.png)
Input File: 02. Wakeful Forerunner.mp3
Channels : 2
Sample Rate : 44100
Precision : 16-bit
Duration : 00:05:51.16 = 15486156 samples = 26337 CDDA sectors
File Size : 14.2M
Bit Rate : 323k
Sample Encoding: MPEG audio (layer I, II or III)
Comments :
Title=Wakeful Forerunner
Artist=Slaveyes
Album=Disaster Myopia
Tracknumber=2/5
Year=2019
Genre=9
Discnumber=1/1



Register


Go to the top of the page
  Insert nick Quick quote
+Quote Post

Reply to this topicStart new topic
1 User(s) are reading this topic (1 Guests and 0 Anonymous Users)
0 Members:

 



- Lo-Fi Version Support form
Copyrights and abuse reports form
Time is now: 8th December 2019 - 18:08:31