Welcome Guest ( Log In | Register )

> Releases Upload / Добавление релизов

Добавить релиз тут / Click here to add release
Рекомендованные обменники / Recommended file shares

 
Reply to this topicStart new topic
> Our Common Collapse - No Longer Human Or Known [ep] (2019), Progressive Deathcore
post Aug 13 2019, 14:39:49
Post #1

Serial Uploader
Group Icon
Group: V.I.P
Posts: 35,814
Releases: 34022
From: Lithuania
On Forums: 11 years 2 months
Thanks: 393044 time(s)
Lithuania


(IMG:https://metalarea.org/images/audiocovers/2019_Aug/acov_tid325656_thumb.jpg)

*Artist: Our Common Collapse
*Album: No Longer Human Or Known [ep]
*Year: 2019
*Genre: Progressive Deathcore
*Country: United States (IMG:https://metalarea.org/forum/style_images/flags/United%20States.png)
*Format: mp3@CBR320kbps
*Size: 52MB

Tracklist:
01. Convulsions 03:26
02. The Mechanist 04:50
03. Lost in a Glare 04:08
04. Brought Beneath 05:25
05. No Longer Human or Known 04:44
******************************
Total playing time: 22:33



(IMG:https://metalarea.org/images/youtube.png)

Technical info
(IMG:https://metalarea.org/images/spectrogram/2019_Aug/04ac79e1750acb65920c3d0c22f19cec.png)
Input File: 02. The Mechanist.mp3
Channels : 2
Sample Rate : 44100
Precision : 16-bit
Duration : 00:04:50.21 = 12798393 samples = 21766 CDDA sectors
File Size : 11.7M
Bit Rate : 323k
Sample Encoding: MPEG audio (layer I, II or III)
Comments :
Title=The Mechanist
Artist=Our Common Collapse
Album=No Longer Human or Known
Tracknumber=2/5
Year=2019
Genre=9
Discnumber=1/1



Register


Thanks:
Go to the top of the page
  Insert nick Quick quote
+Quote Post

Reply to this topicStart new topic
1 User(s) are reading this topic (1 Guests and 0 Anonymous Users)
0 Members:

 



- Lo-Fi Version Support form
Copyrights and abuse reports form
Time is now: 17th August 2019 - 22:07:52