Welcome Guest ( Log In | Register )

> Releases Upload / Добавление релизов

Добавить релиз тут / Click here to add release
Рекомендованные обменники / Recommended file shares

 
Reply to this topicStart new topic
> Ashes Of Existence - Perils [ep] (2019), Melodic Deathcore
post Aug 13 2019, 14:49:34
Post #1

Serial Uploader
Group Icon
Group: V.I.P
Posts: 35,814
Releases: 34022
From: Lithuania
On Forums: 11 years 2 months
Thanks: 393041 time(s)
Lithuania


(IMG:https://metalarea.org/images/audiocovers/2019_Aug/acov_tid325657_thumb.jpg)

*Artist: Ashes Of Existence
*Album: Perils [ep]
*Year: 2019
*Genre: Melodic Deathcore
*Country: United States (IMG:https://metalarea.org/forum/style_images/flags/United%20States.png)
*Format: mp3@CBR320kbps
*Size: 38MB

Tracklist:
01. Perils 02:47
02. The Ills of Broken Men 05:27
03. Black Death 03:56
04. The Thirst 04:37
******************************
Total playing time: 16:47


(IMG:https://metalarea.org/images/youtube.png)

Technical info
(IMG:https://metalarea.org/images/spectrogram/2019_Aug/7cc9c7a82124466b0e0c276c81c9a322.png)
Input File: 02. The Ills of Broken Men.mp3
Channels : 2
Sample Rate : 44100
Precision : 16-bit
Duration : 00:05:27.10 = 14425110 samples = 24532.5 CDDA sectors
File Size : 13.2M
Bit Rate : 323k
Sample Encoding: MPEG audio (layer I, II or III)
Comments :
Title=The Ills of Broken Men
Artist=Ashes of Existence
Album=Perils
Tracknumber=2/4
Year=2019
Genre=9
Discnumber=1/1



Register


Go to the top of the page
  Insert nick Quick quote
+Quote Post

Reply to this topicStart new topic
1 User(s) are reading this topic (1 Guests and 0 Anonymous Users)
0 Members:

 



- Lo-Fi Version Support form
Copyrights and abuse reports form
Time is now: 17th August 2019 - 21:35:08