Welcome Guest ( Log In | Register )

> Kannabinõid - 3 (2019), Stoner/Doom Metal
post Aug 13 2019, 15:51:51
Post #1

Каждое ваше "Спасибо" помогает мне понять, что я делаю новости не напрасно.
**************
Group: Металариец
Posts: 2,107
Releases: 1855
From: Одесса
On Forums: 11 years 6 months
Thanks: 16243 time(s)
Ukraine


(IMG:http://metalarea.org/images/audiocovers/2019_Aug/acov_tid325658_thumb.jpg)

*Artist: Kannabinõid
*Album: 3
*Year: 2019
*Genre: Stoner/Doom Metal
*Country: Estonia (IMG:http://metalarea.org/forum/style_images/flags/Estonia.png)
*Format: mp3@CBR320kbps
*Size: 94MB

Tracklist:
1. Riitus 06:17
2. Imemees 03:40
3. Looja 05:50
4. Võib pimedaks jääda 03:02
5. Paranoia 07:01
6. Ring 05:16
7. Surm 08:25
******************************
Total playing time: 39:31



Extended info
Line - up:

Mirko Mustonen - Bass
Rol - Drums
Siim Laanemäe - Guitars
Jerl Norden - Guitars, Vocals
Taniel Tegelmann - Vocals

(IMG:https://f4.bcbits.com/img/0013505756_10.jpg)


Technical info
(IMG:http://metalarea.org/images/spectrogram/2019_Aug/f1a8c432c4e7dfa0d6e0fe8d87d012d5.png)
Input File: 06. Ring.mp3
Channels : 2
Sample Rate : 44100
Precision : 16-bit
Duration : 00:05:16.83 = 13972335 samples = 23762.5 CDDA sectors
File Size : 12.7M
Bit Rate : 320k
Sample Encoding: MPEG audio (layer I, II or III)
Comments :
Title=Ring
Artist=Kannabinoid
Album=3
Tracknumber=6
Year=2019
Genre=Stoner/Doom Metal



Register


Go to the top of the page
  Insert nick Quick quote
+Quote Post
 
Start new topic
Replies (1 - 3)
post Aug 13 2019, 20:13:50
Post #2

Правь статус, ####!111
**************
Group: Металариец
Posts: 44,478
Releases: 687
On Forums: 10 years 6 months
Thanks: 35814 time(s)
Russian Federation


Музяка на отлично но вот этот тупой чрезмерно орущий вокал портит всю магию.

Эх, такое название хорошее заграбастали, но подкачали, подкачали общей реализацией.


Thanks:
(1) TAKATAEL,
Go to the top of the page
  Insert nick Quick quote
+Quote Post
post Aug 15 2019, 07:58:52
Post #3

Cultist
**************
Group: Металариец
Posts: 4,202
Releases: 1330
From: Koenigsberg
On Forums: 12 years 11 months
Thanks: 8410 time(s)
Russian Federation


Умеренно накуривают. Вокал и правда таксе.
Go to the top of the page
  Insert nick Quick quote
+Quote Post
post Aug 16 2019, 18:17:57
Post #4

Маньяк
**********
Group: Металариец
Posts: 1,349
Releases: 119
On Forums: 10 years 4 months
Thanks: 1004 time(s)
Kazakhstan


сам бог велел эстонцам в этом стиле брянцать
Я , видимо, тут один такой говнарик, которому вокал понравился. Для меня не бывает "чрезмерно" орущих вокалов
Go to the top of the page
  Insert nick Quick quote
+Quote Post

Reply to this topicStart new topic
1 User(s) are reading this topic (1 Guests and 0 Anonymous Users)
0 Members:

 



- Lo-Fi Version Support form
Copyrights and abuse reports form
Time is now: 8th December 2019 - 17:15:16