Welcome Guest ( Log In | Register )

 
Reply to this topicStart new topic
> Protect This City - Light//Darkness [ep] (2019), Metalcore
post Aug 13 2019, 16:45:28
Post #1

MDM-Thrash Metal
**************
Group: Металариец
Posts: 9,117
Releases: 752
From: Одесса
On Forums: 12 years 3 months
Thanks: 20051 time(s)
Ukraine


(IMG:http://metalarea.org/images/audiocovers/2019_Aug/acov_tid325659_thumb.jpg)

*Artist: Protect This City
*Album: Light//Darkness [ep]
*Year: 2019
*Genre: Metalcore
*Country: Poland (IMG:http://metalarea.org/forum/style_images/flags/Poland.png)
*Format: mp3@CBR320kbps
*Size: 45MB

Tracklist:
01. Alive
02. Ghosts
03. Light // Darkness
04. Reach for the Skies
05. Why Do We Fall (feat. Mikolaj Szymkowiak)
******************************
Total playing time: 19:33


(IMG:http://metalarea.org/images/youtube.png)
(IMG:http://metalarea.org/images/youtube.png)
(IMG:http://metalarea.org/images/youtube.png)


Technical info
(IMG:http://metalarea.org/images/spectrogram/2019_Aug/18e8f8532bfa6a9fc5b39bd311db0854.png)
Input File: 02. Ghosts.mp3
Channels : 2
Sample Rate : 44100
Precision : 16-bit
Duration : 00:03:47.59 = 10036895 samples = 17069.5 CDDA sectors
File Size : 9.20M
Bit Rate : 324k
Sample Encoding: MPEG audio (layer I, II or III)
Comments :
Title=Ghosts
Artist=Protect This City
Album=Light // Darkness
Tracknumber=2/5
Year=2019
Genre=9
Discnumber=1/1



Register


Go to the top of the page
  Insert nick Quick quote
+Quote Post

Reply to this topicStart new topic
1 User(s) are reading this topic (1 Guests and 0 Anonymous Users)
0 Members:

 



- Lo-Fi Version Support form
Copyrights and abuse reports form
Time is now: 8th December 2019 - 16:35:57