Welcome Guest ( Log In | Register )

> Degredo & Occelensbrigg - Inverno Profundo [collaboration] (2019), Black Metal | Black Metal (D)(D)
post Aug 13 2019, 17:26:42
Post #1

Правь статус, ####!111
**************
Group: Металариец
Posts: 4,039
Releases: 1036
From: Brazil
On Forums: 7 years 10 months
Thanks: 38418 time(s)
Brazil


(IMG:https://metalarea.org/images/audiocovers/2019_Aug/acov_tid325662_thumb.jpg)

*Artist: Degredo & Occelensbrigg
*Album: Inverno Profundo [collaboration]
*Year: 2019
*Genre: Black Metal | Black Metal
*Country: Portugal (IMG:https://metalarea.org/forum/style_images/flags/Portugal.png) | Portugal (IMG:https://metalarea.org/forum/style_images/flags/Portugal.png)
*Format: mp3@VBR248kbps
*Size: 39MB

Tracklist:
1. Inverno Profundo I 10:56
2. Inverno Profundo II 10:53
******************************
Total playing time: 21:49

(IMG:https://metalarea.org/images/youtube.png)

Extended info
Harvest of Death

Tape-rip by Zero


Technical info
(IMG:https://metalarea.org/images/spectrogram/2019_Aug/838d34d43997338fe830c5de92ee26e3.png)
Input File: 01 Inverno Profundo I.mp3
Channels : 2
Sample Rate : 44100
Precision : 16-bit
Duration : 00:10:56.82 = 28965850 samples = 49261.6 CDDA sectors
File Size : 19.9M
Bit Rate : 243k
Sample Encoding: MPEG audio (layer I, II or III)
Comments :
Title=Inverno Profundo I
Artist=Degredo, Occelensbrigg
Album=Inverno Profundo
Tracknumber=01/2
Year=2019
Discnumber=1/1



Register


Go to the top of the page
  Insert nick Quick quote
+Quote Post
 
Start new topic
Replies (1 - 2)
post Aug 15 2019, 19:44:37
Post #2

De Mysteriis Dom Sathanas
**************
Group: Металариец
Posts: 3,752
Releases: 63
From: Doom
On Forums: 11 years 4 months
Thanks: 3165 time(s)
Russian Federation


Инфернальная шумовая коллаборация, блэка как такового здесь нет...мне, честно говоря, показалась утомительной


Thanks:
(1) Aparo,
Go to the top of the page
  Insert nick Quick quote
+Quote Post
post Aug 15 2019, 20:22:51
Post #3


**************
Group: Металариец
Posts: 2,143
Releases: 14
From: Казань
On Forums: 10 years 2 months
Thanks: 2829 time(s)
Russian Federation


В ключе Ordem Satânica, кому по душе ядовитая эссенция, подавляющая восприятие эйфории, вызванного жизнерадостными bm like зверушками - дОбро пожаловать
Go to the top of the page
  Insert nick Quick quote
+Quote Post

Reply to this topicStart new topic
1 User(s) are reading this topic (1 Guests and 0 Anonymous Users)
0 Members:

 



- Lo-Fi Version Support form
Copyrights and abuse reports form
Time is now: 8th December 2019 - 16:55:14