Welcome Guest ( Log In | Register )

> Releases Upload / Добавление релизов

Добавить релиз тут / Click here to add release
Рекомендованные обменники / Recommended file shares

 
Reply to this topicStart new topic
> Lapidate & Vomigod & Devoured & Forever Annihilating The Obese - Lapidate/Vomigod/Devoured/Forever Annihilating The Obese [split] (2005), Brutal Death Metal | Death Metal/Grindcore | Death Metal | Grindcore P
post Aug 13 2019, 17:31:08
Post #1

Пять Литров
*****
Group: Металариец
Posts: 449
Releases: 96
On Forums: 6 months 2 weeks
Thanks: 936 time(s)
Canada


(IMG:http://metalarea.org/images/audiocovers/2019_Aug/acov_tid325668_thumb.jpg)

*Artist: Lapidate & Vomigod & Devoured & Forever Annihilating The Obese
*Album: Lapidate/Vomigod/Devoured/Forever Annihilating The Obese [split]
*Year: 2005
*Genre: Brutal Death Metal | Death Metal/Grindcore | Death Metal | Grindcore Punk
*Country: Canada (IMG:https://metalarea.org/forum/style_images/flags/Canada.png) | Poland (IMG:https://metalarea.org/forum/style_images/flags/Poland.png) | Canada (IMG:https://metalarea.org/forum/style_images/flags/Canada.png) | Canada (IMG:https://metalarea.org/forum/style_images/flags/Canada.png)
*Format: mp3@CBR320kbps
*Size: 112MB

Tracklist:
Devoured
1.You Are a Product of Cum 00:19
2. I Wrote 00:09
3. Buckshot Abortion 01:10
4. Your Wife Is Sleeping with the Pool Guy 01:32
5. Baby Bukakke Bonanza 03:14
6. The Pope Is the Prince of Anal Masturbation03:37

Forever Annihilating the Obese
7. Night of the Tangled Bush 01:05
8. Enough Already 00:21
9. Drive (Psycho cover) 00:46
10. Fast Food Diet 01:13
11. Fuelled by Evil 00:05
12. Liposuction Fetish 01:23
13. Bought Beauty (Blood cover) 01:18
14. No Compromise 01:26
15. Richard Simmons 01:12
16. No More Metalcore (Noize Re-Mix) 01:29
17. Lay Off Me (Agathocles cover) 00:24
18. The Bastards Have Landed 01:05
19. Robot's Revenge 00:45
20. Vegan Fatty 00:52

Lapidate
21. Fecal Soup for the Sou l00:42
22. Drive-by Cumshot 01:36
23. Gummi-Job (1:32
24. Disgorged Abortion / Confessional Outhouse 04:24
25. Botched Colostomy 01:37

Vomigod
26. Pamietnik Nekrofilia 02:54
27. Rozmowy z Kalem 01:26
28. Oraltrol 01:00
29. Syndrom Dziewicy 03:17
30. Praga '68 01:25
31. Respirator 02:43
32. Samobójca 00:20
******************************
Total playing time: 46:21

Extended info
EAC CD-R rip

http://www.metal-archives.com/albums/Vomig..._Vomigod/267997
Lapidate
Ajax, Ontario, Canada
Brutal Death Metal
Erich Kennedy - drummer/vocals (Adversarial, Horde of Worms, Twilight Hammer)
Vomigod
Zielona Góra, Poland
Death Metal/Grindcore
Pyrosh - Bass, Vocals (Dishell, Ojciec Dyktator)
Mogway - Drums (Visceral Infection)

Devoured
Oshawa, Ontario, Canada
Death Metal
Brian Hope - Bass (Evirus)
Derek Kasza - Guitars (Evirus)

Forever Annihilating the Obese (aka F.A.T.O.)
Oshawa, Ontario, Canada
Grindcore punk


Technical info
(IMG:https://metalarea.org/images/spectrogram/2019_Aug/eb4c689d7b43b5b62978b80129e810b5.png)
Input File: 01 Devoured - You Are a Product of Cum.mp3
Channels : 2
Sample Rate : 44100
Precision : 16-bit
Duration : 00:00:19.64 = 866124 samples = 1473 CDDA sectors
File Size : 793k
Bit Rate : 323k
Sample Encoding: MPEG audio (layer I, II or III)
Comments :
Title=Devoured - You Are a Product of Cum
Artist=Devoured
Album=Lapidate / Vomigod / Devoured / Forever Annihilating the Obese [split CD-R]
Tracknumber=01/32
Year=2005
Genre=Death Metal/Grindcore
Discnumber=1/1



Register


Thanks:
Go to the top of the page
  Insert nick Quick quote
+Quote Post

Reply to this topicStart new topic
1 User(s) are reading this topic (1 Guests and 0 Anonymous Users)
0 Members:

 



- Lo-Fi Version Support form
Copyrights and abuse reports form
Time is now: 17th August 2019 - 21:34:56