Welcome Guest ( Log In | Register )

> 1349 - Through Eyes Of Stone [ep] (2019), Black Metal (D)
post Aug 13 2019, 17:33:11
Post #1

Каждое ваше "Спасибо" помогает мне понять, что я делаю новости не напрасно.
***********
Group: Металариец
Posts: 1,892
Releases: 1654
From: Одесса
On Forums: 11 years 2 months
Thanks: 13940 time(s)
Ukraine


(IMG:http://metalarea.org/images/audiocovers/2019_Aug/acov_tid325664_thumb.jpg)

*Artist: 1349
*Album: Through Eyes Of Stone [ep]
*Year: 2019
*Genre: Black Metal
*Country: Norway (IMG:http://metalarea.org/forum/style_images/flags/Norway.png)
*Format: mp3@CBR128kbps (IMG:http://metalarea.org/images/bit_low.gif)
*Size: 6MB

Tracklist:
1. Through Eyes of Stone 03:24
2. Riders of the Apocalypse (live) 02:31
******************************
Total playing time: 5:55

(IMG:http://metalarea.org/images/youtube.png)

Extended info
Line - up:

Seidemann - Bass (Mortem, Pantheon I, Svart Lotus, ex-Tyrann, ex-Den Saakaldte, ex-Nidingr, ex-Koldbrann (live), ex-Dead Trooper, ex-Slavia, ex-Alvheim, ex-Hofdingi Myrkra)
Ravn - Vocals (lead) (ex-Alvheim, ex-Hofdingi Myrkra, ex-Ravn)
Archaon - Guitars, Vocals (backing) (ex-Antaios, ex-Funeral)
Frost - Drums (Satyricon, ex-Zyklon-B, ex-Gorgoroth, ex-Keep of Kalessin, ex-Gehenna (live))

(IMG:https://www.metal-archives.com/images/5/5/7/5/5575_photo.jpg?2938)


Technical info
(IMG:http://metalarea.org/images/spectrogram/2019_Aug/9dadc24d51161048ab3d5e996bfac39e.png)
Input File: 01 - Through Eyes of Stone.mp3
Channels : 2
Sample Rate : 44100
Precision : 16-bit
Duration : 00:03:24.69 = 9026741 samples = 15351.6 CDDA sectors
File Size : 3.28M
Bit Rate : 128k
Sample Encoding: MPEG audio (layer I, II or III)
Comments :
Title=Through Eyes of Stone
Artist=1349
Album=Through Eyes of Stone (EP)
Tracknumber=1
Year=2019
Genre=Black Metal



Register


Go to the top of the page
  Insert nick Quick quote
+Quote Post
 
Start new topic
Replies (1 - 1)
post Yesterday, 12:30:54
Post #2

De Mysteriis Dom Sathanas
**************
Group: Металариец
Posts: 3,612
Releases: 63
From: Москва
On Forums: 11 years 1 month
Thanks: 3041 time(s)
Russian Federation


И где The Infernal Pathway, надоели эти миники (IMG:style_emoticons/default/25.gif)
Go to the top of the page
  Insert nick Quick quote
+Quote Post

Reply to this topicStart new topic
1 User(s) are reading this topic (1 Guests and 0 Anonymous Users)
0 Members:

 



- Lo-Fi Version Support form
Copyrights and abuse reports form
Time is now: 17th August 2019 - 22:16:02