Welcome Guest ( Log In | Register )

> Releases Upload / Добавление релизов

Добавить релиз тут / Click here to add release
Рекомендованные обменники / Recommended file shares

> Sanguine Relic & Immatura Morte - Immatura Morte/Sanguine Relic [split] (2019), Raw Black Metal | Raw Black Metal
post Aug 13 2019, 18:07:12
Post #1

Правь статус, ####!111
**************
Group: Металариец
Posts: 3,808
Releases: 909
From: Brazil
On Forums: 7 years 6 months
Thanks: 33898 time(s)
Brazil


(IMG:https://metalarea.org/images/audiocovers/2019_Aug/acov_tid325665_thumb.png)

*Artist: Sanguine Relic & Immatura Morte
*Album: Immatura Morte/Sanguine Relic [split]
*Year: 2019
*Genre: Raw Black Metal | Raw Black Metal
*Country: United States (IMG:https://metalarea.org/forum/style_images/flags/United%20States.png) | Mexico (IMG:https://metalarea.org/forum/style_images/flags/Mexico.png)
*Format: mp3@CBR320kbps
*Size: 55MB

Tracklist:
Immatura Morte:
1. Anima Vetus Intolerabili Dolore 06:23
2. The Black Flame Will Destroy Your Essence 04:07
Sanguine Relic:
3. Mirage in the Pouring Light 10:35
******************************
Total playing time: 21:05

Extended info
Perverse Homage

Tape-rip by toooooomb
+ Scans


Technical info
(IMG:https://metalarea.org/images/spectrogram/2019_Aug/070ea6ea0eef09f79c7214eb2ab18f75.png)
Input File: 02.The Black Flame Will Destroy Your Essence.mp3
Channels : 2
Sample Rate : 48000
Precision : 16-bit
Duration : 00:04:08.02 = 11904768 samples ~ 18601.2 CDDA sectors
File Size : 9.92M
Bit Rate : 320k
Sample Encoding: MPEG audio (layer I, II or III)
Comments :
Title=The Black Flame Will Destroy Your Essence
Artist=Immatura Morte
Album=Immatura Morte / Sanguine Relic
Tracknumber=2/3
Year=2019
Genre=Black Metal



Register


Go to the top of the page
  Insert nick Quick quote
+Quote Post
 
Start new topic
Replies (1 - 1)
post Aug 14 2019, 08:52:44
Post #2

While Waiting the Worms
********
Group: Металариец
Posts: 854
Releases: 0
On Forums: 5 years 7 months
Thanks: 1149 time(s)
Unknown






Thanks:
(1) Occultas,
Go to the top of the page
  Insert nick Quick quote
+Quote Post

Reply to this topicStart new topic
1 User(s) are reading this topic (1 Guests and 0 Anonymous Users)
0 Members:

 



- Lo-Fi Version Support form
Copyrights and abuse reports form
Time is now: 17th August 2019 - 21:35:23