Welcome Guest ( Log In | Register )

> Rage In My Eyes - Ice Cell (2019), Progressive Heavy/Power Metal
post Aug 13 2019, 18:20:36
Post #1

Правь статус, ####!111
**************
Group: Металариец
Posts: 19,792
Releases: 13423
From: Г.Харьков
On Forums: 7 years 6 months
Thanks: 232249 time(s)
Unknown


(IMG:http://metalarea.org/images/audiocovers/2019_Aug/acov_tid325666_thumb.jpg)

*Artist: Rage In My Eyes
*Album: Ice Cell
*Year: 2019
*Genre: Progressive Heavy/Power Metal
*Country: Brazil (IMG:http://metalarea.org/forum/style_images/flags/Brazil.png)
*Format: mp3@CBR320kbps
*Size: 106MB

Tracklist:
01. Winter Dream
02. Surrounded by Black Mirrors
03. Dive Deep into Madness
04. Hole in the Shell
05. Death Sleepers
06. Inner Fate
07. Blank
08. The Core
09. Soul Gatherer
10. Burn the Throne!
11. Draft of Illusions
******************************
Total playing time: 49:50



Extended info
Jonathas Pozo - Vocals
Magnus Wichmann - Guitars
Leo Nunes - Guitars
Pedro Fauth - Bass
Francis Cassol - Drums


Technical info
(IMG:http://metalarea.org/images/spectrogram/2019_Aug/5f86c1961d5ceb78a259a31bb3573f2f.png)
Input File: 04. Hole in the Shell.mp3
Channels : 2
Sample Rate : 44100
Precision : 16-bit
Duration : 00:04:35.66 = 12156694 samples = 20674.6 CDDA sectors
File Size : 11.2M
Bit Rate : 324k
Sample Encoding: MPEG audio (layer I, II or III)
Comments :
Title=Hole in the Shell
Artist=Rage In My Eyes
Album=Ice Cell
Tracknumber=4/11
Year=2019
Genre=9
Discnumber=1/1



Register


Go to the top of the page
  Insert nick Quick quote
+Quote Post
 
Start new topic
Replies (1 - 6)
post Aug 13 2019, 19:56:59
Post #2

Правь статус, ####!111
**************
Group: Металариец
Posts: 19,792
Releases: 13423
From: Г.Харьков
On Forums: 7 years 6 months
Thanks: 232249 time(s)
Unknown


Cloud Mail 320
Register


Go to the top of the page
  Insert nick Quick quote
+Quote Post
post Aug 13 2019, 20:32:04
Post #3

21st Century Schizoid Man
**************
Group: Металариец
Posts: 6,138
Releases: 76
From: Moscow
On Forums: 11 years 7 months
Thanks: 4837 time(s)
Russian Federation


Как минимум вокал отличный - напомнил Яркко Ахола.
Go to the top of the page
  Insert nick Quick quote
+Quote Post
post Aug 14 2019, 15:17:35
Post #4

Шесть Литров
******
Group: Металариец
Posts: 556
Releases: 0
On Forums: 10 years 5 months
Thanks: 129 time(s)
Ukraine


Хорошая группа, молодцы классно играют, аокал замечатеььный как по мне!!
Go to the top of the page
  Insert nick Quick quote
+Quote Post
post Aug 14 2019, 16:10:59
Post #5

Правь статус, ####!111
**************
Group: Металариец
Posts: 4,292
Releases: 0
From: Одесса
On Forums: 11 years 9 months
Thanks: 2552 time(s)
Unknown


accordion not really matching with this style (IMG:style_emoticons/default/21.gif)
Go to the top of the page
  Insert nick Quick quote
+Quote Post
post Aug 14 2019, 20:16:14
Post #6

Тридцать лет на борту "Тяжёлого" крейсера
**************
Group: Металариец
Posts: 2,126
Releases: 0
From: Питер
On Forums: 12 years 5 months
Thanks: 548 time(s)
Russian Federation


Вокал отличный, играть мужики умеют..одна беда - ну абсолютно не хитовый и заезженный материал
Go to the top of the page
  Insert nick Quick quote
+Quote Post
post Aug 19 2019, 13:14:36
Post #7

Ёлд ХеллоВяйне
Group Icon
Group: V.I.P
Posts: 28,462
Releases: 133
From: Питер
On Forums: 13 years 1 month
Thanks: 16213 time(s)
Russian Federation


QUOTE(babanguida @ 14th August 2019 - 18:10:59) *
accordion


как раз самая писечка.
Go to the top of the page
  Insert nick Quick quote
+Quote Post

Reply to this topicStart new topic
1 User(s) are reading this topic (1 Guests and 0 Anonymous Users)
0 Members:

 



- Lo-Fi Version Support form
Copyrights and abuse reports form
Time is now: 8th December 2019 - 17:26:57