Welcome Guest ( Log In | Register )

> Releases Upload / Добавление релизов

Добавить релиз тут / Click here to add release
Рекомендованные обменники / Recommended file shares

 
Reply to this topicStart new topic
> Iphicrate - Résurgence [ep] (2017), Black Metal
post Aug 13 2019, 18:31:43
Post #1

Правь статус, ####!111
**************
Group: Металариец
Posts: 3,808
Releases: 909
From: Brazil
On Forums: 7 years 6 months
Thanks: 33898 time(s)
Brazil


(IMG:https://metalarea.org/images/audiocovers/2019_Aug/acov_tid325667_thumb.jpg)

*Artist: Iphicrate
*Album: Résurgence [ep]
*Year: 2017
*Genre: Black Metal
*Country: France (IMG:https://metalarea.org/forum/style_images/flags/France.png)
*Format: mp3@CBR320kbps
*Size: 54MB

Tracklist:
1. Immersion 00:59
2. Altération 04:08
3. Résurgence 05:52
4. Réminiscnence 04:09
5. Verden Under 02:03
6. Den Hellige Ild 04:51
7. Psychotic Torment Act3 01:14
******************************
Total playing time: 23:16




Extended info
Ossuaire Records

Lineup

Aaentorn / Dasap - Guitars, Bass, Keyboards

See also: Höggva, ex-The Element, ex-Dasap, ex-Tenebricosus, ex-Sickbag, ex-Wargus, ex-Dust, ex-Obscurium

Fog - Drums, Vocals
See also: AUM, Cénotaphe, Höggva, Norman Shores, Rêx Mündi, Salamandar, Ulfberht, Weltering in Blood, ex-Asylum Phenomena, ex-Birthdecline, ex-Drangsalymir, ex-Obscurité, ex-Quintessence, ex-Caverne, ex-Nécropole, ex-The Bottle Doom Lazy Band, ex-Aurvandil, ex-Sickbag, ex-Umbakrail, ex-Angmar


Technical info
(IMG:https://metalarea.org/images/spectrogram/2019_Aug/8e5fccfa99635a7dec3f7eed8a4abb4d.png)
Input File: 02 Altération.mp3
Channels : 2
Sample Rate : 44100
Precision : 16-bit
Duration : 00:04:08.13 = 10942401 samples = 18609.5 CDDA sectors
File Size : 9.99M
Bit Rate : 322k
Sample Encoding: MPEG audio (layer I, II or III)
Comments :
Title=Altération
Artist=Iphicrate
Album=Résurgence
Tracknumber=2
Year=2017
Genre=Viking Black Metal



Register


Go to the top of the page
  Insert nick Quick quote
+Quote Post

Reply to this topicStart new topic
1 User(s) are reading this topic (1 Guests and 0 Anonymous Users)
0 Members:

 



- Lo-Fi Version Support form
Copyrights and abuse reports form
Time is now: 17th August 2019 - 21:41:19