Welcome Guest ( Log In | Register )

> Egyptian Ropes - Burning Death Impulse [demo] (2018), Black Metal
post Aug 13 2019, 20:29:42
Post #1

the faceless one
Group Icon
Group: S-moderation team
Posts: 9,246
Releases: 1898
On Forums: 11 years 3 months
Thanks: 112342 time(s)
Russian Federation


(IMG:http://metalarea.org/images/audiocovers/2019_Aug/acov_tid325669_thumb.jpg)

*Artist: Egyptian Ropes
*Album: Burning Death Impulse [demo]
*Year: 2018
*Genre: Black Metal
*Country: United States (IMG:http://metalarea.org/forum/style_images/flags/United%20States.png)
*Format: mp3@VBR245kbps
*Size: 10MB

Tracklist:
1. Rumination 01:49
2. Burning Death Impulse 01:40
3. Unknown 02:18
******************************
Total playing time: 5:47

Extended info
Lampshade Tapes ‎– LST17


Technical info
(IMG:http://metalarea.org/images/spectrogram/2019_Aug/bd2b1029a50533b2cdb3d5fcbe1da815.png)
Input File: 01 Rumination.mp3
Channels : 2
Sample Rate : 44100
Precision : 16-bit
Duration : 00:01:49.06 = 4809590 samples = 8179.57 CDDA sectors
File Size : 3.34M
Bit Rate : 245k
Sample Encoding: MPEG audio (layer I, II or III)
Comments :
Title=Rumination
Artist=Egyptian Ropes
Album=Burning Death Impulse
Tracknumber=01
Year=2018
Genre=Black Metal



Register


Go to the top of the page
  Insert nick Quick quote
+Quote Post
 
Start new topic
Replies (1 - 2)
post Aug 14 2019, 19:06:11
Post #2

Мегаманьяк
***********
Group: Металариец
Posts: 1,549
Releases: 24
From: Spain
On Forums: 12 years 3 months
Thanks: 1225 time(s)
Spain




Thanks:
Go to the top of the page
  Insert nick Quick quote
+Quote Post
post Aug 15 2019, 10:05:00
Post #3

Четыре Литра
****
Group: Металариец
Posts: 354
Releases: 0
On Forums: 6 months 11 hours
Thanks: 222 time(s)
Russian Federation


Оголтелая и сырая приблэкованная панкуха.
Go to the top of the page
  Insert nick Quick quote
+Quote Post

Reply to this topicStart new topic
1 User(s) are reading this topic (1 Guests and 0 Anonymous Users)
0 Members:

 



- Lo-Fi Version Support form
Copyrights and abuse reports form
Time is now: 8th December 2019 - 16:36:33