Welcome Guest ( Log In | Register )

> Releases Upload / Добавление релизов

Добавить релиз тут / Click here to add release
Рекомендованные обменники / Recommended file shares

> Egyptian Ropes - Burning Death Impulse [demo] (2018), Black Metal
post Aug 13 2019, 20:29:42
Post #1

the faceless one
Group Icon
Group: S-moderation team
Posts: 9,202
Releases: 1880
On Forums: 11 years 1 week
Thanks: 110283 time(s)
Russian Federation


(IMG:http://metalarea.org/images/audiocovers/2019_Aug/acov_tid325669_thumb.jpg)

*Artist: Egyptian Ropes
*Album: Burning Death Impulse [demo]
*Year: 2018
*Genre: Black Metal
*Country: United States (IMG:http://metalarea.org/forum/style_images/flags/United%20States.png)
*Format: mp3@VBR245kbps
*Size: 10MB

Tracklist:
1. Rumination 01:49
2. Burning Death Impulse 01:40
3. Unknown 02:18
******************************
Total playing time: 5:47

Extended info
Lampshade Tapes ‎– LST17


Technical info
(IMG:http://metalarea.org/images/spectrogram/2019_Aug/bd2b1029a50533b2cdb3d5fcbe1da815.png)
Input File: 01 Rumination.mp3
Channels : 2
Sample Rate : 44100
Precision : 16-bit
Duration : 00:01:49.06 = 4809590 samples = 8179.57 CDDA sectors
File Size : 3.34M
Bit Rate : 245k
Sample Encoding: MPEG audio (layer I, II or III)
Comments :
Title=Rumination
Artist=Egyptian Ropes
Album=Burning Death Impulse
Tracknumber=01
Year=2018
Genre=Black Metal



Register


Go to the top of the page
  Insert nick Quick quote
+Quote Post
 
Start new topic
Replies (1 - 2)
post Aug 14 2019, 19:06:11
Post #2

Мегаманьяк
***********
Group: Металариец
Posts: 1,532
Releases: 24
From: Spain
On Forums: 11 years 11 months
Thanks: 1209 time(s)
Spain


Go to the top of the page
  Insert nick Quick quote
+Quote Post
post Aug 15 2019, 10:05:00
Post #3

Три Литра
***
Group: Завсегдатай
Posts: 235
Releases: 0
On Forums: 2 months 1 week
Thanks: 132 time(s)
Russian Federation


Оголтелая и сырая приблэкованная панкуха.
Go to the top of the page
  Insert nick Quick quote
+Quote Post

Reply to this topicStart new topic
1 User(s) are reading this topic (1 Guests and 0 Anonymous Users)
0 Members:

 



- Lo-Fi Version Support form
Copyrights and abuse reports form
Time is now: 17th August 2019 - 21:51:12