Welcome Guest ( Log In | Register )

 
Reply to this topicStart new topic
> Hail Conjurer - Heaven Piercing Phallos/Manifests Of Will [compilation] (2018), Black Metal
post Aug 13 2019, 20:30:12
Post #1

the faceless one
Group Icon
Group: S-moderation team
Posts: 9,246
Releases: 1898
On Forums: 11 years 3 months
Thanks: 112342 time(s)
Russian Federation


(IMG:http://metalarea.org/images/audiocovers/2019_Aug/acov_tid325673_thumb.jpg)

*Artist: Hail Conjurer
*Album: Heaven Piercing Phallos/Manifests Of Will [compilation]
*Year: 2018
*Genre: Black Metal
*Country: Finland (IMG:http://metalarea.org/forum/style_images/flags/Finland.png)
*Format: mp3@CBR320kbps
*Size: 90MB

Tracklist:
1. Heaven Piercing Phallos 09:01
2. Planetary Forces 05:22
3. LUX 04:59
4. Petroglyphimagia 05:53
5. Outbreak Of Unholy 07:11
6. Belonging 06:26
******************************
Total playing time: 38:53



Extended info
Bestial Burst,
limited to 100 copies.


Technical info
(IMG:http://metalarea.org/images/spectrogram/2019_Aug/a420cc1b99f395bb5943e30a467007f1.png)
Input File: 01_-_Hail_Conjurer_-_Heaven_Piercing_Phallos_-_Manifests_of_Will_-_Heaven_Piercing_Phallos.mp3
Channels : 2
Sample Rate : 44100
Precision : 16-bit
Duration : 00:09:01.05 = 23860393 samples = 40578.9 CDDA sectors
File Size : 21.8M
Bit Rate : 322k
Sample Encoding: MPEG audio (layer I, II or III)
Comments :
Title=Heaven Piercing Phallos
Artist=Hail Conjurer
Album=Heaven Piercing Phallos / Manifests of Will
Tracknumber=1
Year=2018
Genre=Metal
Discnumber=1



Register


Go to the top of the page
  Insert nick Quick quote
+Quote Post

Reply to this topicStart new topic
1 User(s) are reading this topic (1 Guests and 0 Anonymous Users)
0 Members:

 



- Lo-Fi Version Support form
Copyrights and abuse reports form
Time is now: 8th December 2019 - 17:06:32