Welcome Guest ( Log In | Register )

> Withering Moon - Withering Moon [demo] (2019), Black Metal
post Aug 13 2019, 20:30:37
Post #1

the faceless one
Group Icon
Group: S-moderation team
Posts: 9,246
Releases: 1898
On Forums: 11 years 3 months
Thanks: 112342 time(s)
Russian Federation


(IMG:http://metalarea.org/images/audiocovers/2019_Aug/acov_tid325671_thumb.jpg)

*Artist: Withering Moon
*Album: Withering Moon [demo]
*Year: 2019
*Genre: Black Metal
*Country: United States (IMG:http://metalarea.org/forum/style_images/flags/United%20States.png)
*Format: mp3@VBR315kbps
*Size: 41MB

Tracklist:
1. My Veins Will Forever Burn For You 06:48
2. Poisoned By The Animosity Of Abstemiousness 04:25
3. Convulvulus 07:02
******************************
Total playing time: 18:15

Extended info
Perverse Homage


Technical info
(IMG:http://metalarea.org/images/spectrogram/2019_Aug/51777879732560df8f6fa4aa8e0e469b.png)
Input File: 02 Poisoned By The Animosity Of Abstemiousness.mp3
Channels : 2
Sample Rate : 44100
Precision : 16-bit
Duration : 00:04:25.27 = 11698539 samples = 19895.5 CDDA sectors
File Size : 10.3M
Bit Rate : 311k
Sample Encoding: MPEG audio (layer I, II or III)
Comments :
Title=Poisoned By The Animosity Of Abstemiousness
Artist=Withering Moon
Album=Withering Moon
Tracknumber=02
Year=2019



Register


Go to the top of the page
  Insert nick Quick quote
+Quote Post
 
Start new topic
Replies (1 - 3)
post Aug 14 2019, 08:50:45
Post #2

While Waiting the Worms
*********
Group: Металариец
Posts: 920
Releases: 0
On Forums: 5 years 11 months
Thanks: 1245 time(s)
Unknown




Thanks:
Go to the top of the page
  Insert nick Quick quote
+Quote Post
post Aug 14 2019, 11:53:19
Post #3

Group: Подсевший
Posts: 37
Releases: 9
From: Якутия
On Forums: 11 years 6 months
Thanks: 85 time(s)
Russian Federation


Очень хороший релиз! Роу, меланхолия, злоба и тьма (IMG:style_emoticons/default/20.gif)
Go to the top of the page
  Insert nick Quick quote
+Quote Post
post Aug 15 2019, 08:07:16
Post #4

Четыре Литра
****
Group: Металариец
Posts: 354
Releases: 0
On Forums: 6 months 11 hours
Thanks: 222 time(s)
Russian Federation


Отличная демка. Неторопливый, гипнотический и зловещей материал. Из-за размеренности и из-за того, как обыгрываются некоторые риффы, эта запись напомнила мне демки Mütiilation.
Go to the top of the page
  Insert nick Quick quote
+Quote Post

Reply to this topicStart new topic
1 User(s) are reading this topic (1 Guests and 0 Anonymous Users)
0 Members:

 



- Lo-Fi Version Support form
Copyrights and abuse reports form
Time is now: 8th December 2019 - 16:35:52