Welcome Guest ( Log In | Register )

> Releases Upload / Добавление релизов

Добавить релиз тут / Click here to add release
Рекомендованные обменники / Recommended file shares

> Pénombre - Live À La Messe Des Morts MMXVIII [demo] (2019), Black Metal
post Aug 13 2019, 20:31:14
Post #1

the faceless one
Group Icon
Group: S-moderation team
Posts: 9,202
Releases: 1880
On Forums: 11 years 1 week
Thanks: 110283 time(s)
Russian Federation


(IMG:http://metalarea.org/images/audiocovers/2019_Aug/acov_tid325672_thumb.jpg)

*Artist: Pénombre
*Album: Live À La Messe Des Morts MMXVIII [demo]
*Year: 2019
*Genre: Black Metal
*Country: Canada (IMG:http://metalarea.org/forum/style_images/flags/Canada.png)
*Format: mp3@VBR266kbps
*Size: 43MB

Tracklist:
1. Méphistophélès 05:33
2. Révélations 04:09
3. 1000 Ans De Chaos 04:08
4. Paradis Perdu 04:14
5. Pénombre 04:34
******************************
Total playing time: 22:38

Extended info
Enregistré à la Masse Mes morts 8 le 22 novembre 2018 avec Negative Plane, Gevurah, Sortilegia & Trenchant


Technical info
(IMG:http://metalarea.org/images/spectrogram/2019_Aug/c955c22b56d2f4caccb43c36bf58240a.png)
Input File: 01 Méphistophélès.mp3
Channels : 2
Sample Rate : 44100
Precision : 16-bit
Duration : 00:05:32.70 = 14671850 samples = 24952.1 CDDA sectors
File Size : 10.9M
Bit Rate : 261k
Sample Encoding: MPEG audio (layer I, II or III)
Comments :
Title=Méphistophélès
Artist=Pénombre
Album=Live à la Messe Des Morts 8
Tracknumber=01
Year=2019
Genre=Black Metal



Register


Go to the top of the page
  Insert nick Quick quote
+Quote Post
 
Start new topic
Replies (1 - 3)
post Aug 13 2019, 20:59:41
Post #2

Восемь Литров
********
Group: Металариец
Posts: 845
Releases: 165
On Forums: 8 years 10 months
Thanks: 2045 time(s)
Albania


first quality stuff
Go to the top of the page
  Insert nick Quick quote
+Quote Post
post Aug 14 2019, 08:46:05
Post #3

Литр
*
Group: Подсевший
Posts: 69
Releases: 0
From: GREAT TARTARIA
On Forums: 5 years 11 months
Thanks: 14 time(s)
Unknown


Hail, Абигор!
Go to the top of the page
  Insert nick Quick quote
+Quote Post
post Aug 14 2019, 08:49:56
Post #4

While Waiting the Worms
********
Group: Металариец
Posts: 854
Releases: 0
On Forums: 5 years 7 months
Thanks: 1149 time(s)
Unknown


Запись вот этого выступления.



Thanks:
(1) RENыч,
Go to the top of the page
  Insert nick Quick quote
+Quote Post

Reply to this topicStart new topic
2 User(s) are reading this topic (2 Guests and 0 Anonymous Users)
0 Members:

 



- Lo-Fi Version Support form
Copyrights and abuse reports form
Time is now: 17th August 2019 - 22:27:11