Welcome Guest ( Log In | Register )

> И неформату есть предел.

Рэп/хип-хоп/шансон/поп удаляются. Для них есть свои порталы.

> Grendel - Ascending The Abyss (2019), Ebm/Industrial (D9)
post Aug 13 2019, 23:43:37
Post #1

Два Литра
**
Group: Завсегдатай
Posts: 119
Releases: 22
On Forums: 3 years 3 weeks
Thanks: 563 time(s)
United States


(IMG:http://metalarea.org/images/audiocovers/2019_Aug/acov_tid325675_thumb.jpg)

*Artist: Grendel
*Album: Ascending The Abyss
*Year: 2019
*Genre: Ebm/Industrial
*Country: United Kingdom (IMG:http://metalarea.org/forum/style_images/flags/United%20Kingdom.png)
*Format: mp3@CBR320kbps
*Size: 106MB

Tracklist:
1 Ascension (Intro)
2 Brace The Storm
3 Caught In The Middle
4 Cloak & Dagger
5 Bitter Tide
6 Fire & Light
7 Glass Under Feet
8 Purpose
9 Falling Back
10 Northern Line
******************************
Total playing time: 46:36

Technical info
(IMG:http://metalarea.org/images/spectrogram/2019_Aug/af416fd770595f9cb0aa7da2755179f7.png)
Input File: 2. Brace the Storm.mp3
Channels : 2
Sample Rate : 44100
Precision : 16-bit
Duration : 00:05:27.68 = 14450468 samples = 24575.6 CDDA sectors
File Size : 13.2M
Bit Rate : 321k
Sample Encoding: MPEG audio (layer I, II or III)
Comments :
Title=Brace the Storm
Artist=Grendel
Album=Ascending the Abyss
Tracknumber=2
Year=2019
Genre=Electronic
Discnumber=1



Register


Go to the top of the page
  Insert nick Quick quote
+Quote Post
 
Start new topic
Replies (1 - 3)
post Aug 17 2019, 03:45:21
Post #2

...Only Death Is Real...
**************
Group: Металариец
Posts: 2,761
Releases: 15
On Forums: 9 years 1 month
Thanks: 1746 time(s)
Antarctica


Go to the top of the page
  Insert nick Quick quote
+Quote Post
post Aug 17 2019, 06:23:19
Post #3

poison creosote
******
Group: Металариец
Posts: 695
Releases: 1
On Forums: 2 years 2 months
Thanks: 355 time(s)
Iceland


Раньше годный дарк электро делали, а это что вообще? Синтпоп с примесью модерн метала. Разочаровали.
Go to the top of the page
  Insert nick Quick quote
+Quote Post
post Aug 17 2019, 09:39:12
Post #4

Пять Литров
*****
Group: Металариец
Posts: 427
Releases: 0
From: Катин город
On Forums: 10 years 8 months
Thanks: 247 time(s)
Russian Federation


ЦИТАТА(Krosis @ Aug 17 2019, 10:23:19) *
Раньше годный дарк электро делали, а это что вообще? Синтпоп с примесью модерн метала. Разочаровали.

Всесточностьюна (IMG:style_emoticons/default/12.gif) орот
Go to the top of the page
  Insert nick Quick quote
+Quote Post

Reply to this topicStart new topic
1 User(s) are reading this topic (1 Guests and 0 Anonymous Users)
0 Members:

 



- Lo-Fi Version Support form
Copyrights and abuse reports form
Time is now: 24th August 2019 - 03:25:45