Welcome Guest ( Log In | Register )

> И неформату есть предел.

Рэп/хип-хоп/шансон/поп удаляются. Для них есть свои порталы.

> Eden Synthetic Corps - Gold (2019), Electro/Ebm/Industrial (D6)
post Aug 13 2019, 23:45:54
Post #1

Два Литра
**
Group: Завсегдатай
Posts: 119
Releases: 22
On Forums: 3 years 3 weeks
Thanks: 563 time(s)
United States


(IMG:http://metalarea.org/images/audiocovers/2019_Aug/acov_tid325676_thumb.jpg)

*Artist: Eden Synthetic Corps
*Album: Gold
*Year: 2019
*Genre: Electro/Ebm/Industrial
*Country: Portugal (IMG:http://metalarea.org/forum/style_images/flags/Portugal.png)
*Format: mp3@CBR320kbps
*Size: 119MB

Tracklist:
1 Aokigahara
2 Ash
3 Borderland
4 Pledge
5 Soothe
6 Blackwood
7 Gold
8 Seven
9 October
10 Misericórdia
11 Pure
12 Spell
******************************
Total playing time: 55:34

Technical info
(IMG:http://metalarea.org/images/spectrogram/2019_Aug/f87e030408de34f87f2bd7d39afe3f66.png)
Input File: 01-eden_synthetic_corps-aokigahara-d61f3809.mp3
Channels : 2
Sample Rate : 44100
Precision : 16-bit
Duration : 00:05:14.09 = 13851369 samples = 23556.7 CDDA sectors
File Size : 12.8M
Bit Rate : 325k
Sample Encoding: MPEG audio (layer I, II or III)
Comments :
Title=Aokigahara
Artist=Eden Synthetic Corps
Album=Gold
Tracknumber=1/12
Year=2019
Genre=Electronic



Register


Go to the top of the page
  Insert nick Quick quote
+Quote Post
 
Start new topic
Replies (1 - 2)
post Aug 14 2019, 08:58:57
Post #2

While Waiting the Worms
********
Group: Металариец
Posts: 859
Releases: 0
On Forums: 5 years 8 months
Thanks: 1153 time(s)
Unknown


Preview

http://www.edensyntheticcorps.pt/portfolios/gold/


Thanks:
(1) lucifix,
Go to the top of the page
  Insert nick Quick quote
+Quote Post
post Aug 17 2019, 06:25:05
Post #3

poison creosote
******
Group: Металариец
Posts: 695
Releases: 1
On Forums: 2 years 2 months
Thanks: 355 time(s)
Iceland


Довольно неплохой материал вышел, с налётом Hocicoвости и немного Тамтрума времён Elektronic Blakc Mess.
Go to the top of the page
  Insert nick Quick quote
+Quote Post

Reply to this topicStart new topic
1 User(s) are reading this topic (1 Guests and 0 Anonymous Users)
0 Members:

 



- Lo-Fi Version Support form
Copyrights and abuse reports form
Time is now: 24th August 2019 - 04:24:21