Welcome Guest ( Log In | Register )

> И неформату есть предел.

Рэп/хип-хоп/шансон/поп удаляются. Для них есть свои порталы.

> The Boys Next Door - Door, Door (1979), Post-Punk
post Aug 14 2019, 10:51:09
Post #1

Враг Газпрома
**************
Group: Металариец
Posts: 5,976
Releases: 0
On Forums: 10 years 2 months
Thanks: 2148 time(s)
Russian Federation


(IMG:http://metalarea.org/images/audiocovers/2019_Aug/acov_tid325685_thumb.jpg)

*Artist: The Boys Next Door
*Album: Door, Door
*Year: 1979
*Genre: Post-Punk
*Country: Australia (IMG:http://metalarea.org/forum/style_images/flags/Australia.png)
*Format: mp3@CBR320kbps
*Size: 70MB

Tracklist:
01 - The Nightwatchman
02 - Brave Exhibitions
03 - Friends Of My World
04 - The Voice
05 - Roman Roman
06 - Somebody's Watching
07 - After A Fashion
08 - Dive Position
09 - I Mistake Myself
10 - Shivers
******************************
Total playing time: 31:57

Technical info
(IMG:http://metalarea.org/images/spectrogram/2019_Aug/70f6f16d6a3891ac84c9f0a819fe27ed.png)
Input File: 01 - The Nightwatchman.mp3
Channels : 2
Sample Rate : 44100
Precision : 16-bit
Duration : 00:02:10.68 = 5762812 samples = 9800.7 CDDA sectors
File Size : 5.36M
Bit Rate : 328k
Sample Encoding: MPEG audio (layer I, II or III)
Comments :
Title=The Nightwatchman
Artist=The Boys Next Door
Album=Door, Door
Tracknumber=1
Year=1979
Genre=Alternative



Register


Thanks:
Go to the top of the page
  Insert nick Quick quote
+Quote Post
 
Start new topic
Replies (1 - 3)
post Aug 20 2019, 23:55:26
Post #2

Маньяк
**********
Group: Металариец
Posts: 1,447
Releases: 0
From: Харьков
On Forums: 9 years 10 months
Thanks: 540 time(s)
Ukraine


Это ж первая группа Ника Кейва) Но сыровато еще, мне больше его творчество, начиная с "Your Funeral ... My Trial" нравится.


Thanks:
(1) vam1972,
Go to the top of the page
  Insert nick Quick quote
+Quote Post
post Aug 21 2019, 06:33:54
Post #3

Враг Газпрома
**************
Group: Металариец
Posts: 5,976
Releases: 0
On Forums: 10 years 2 months
Thanks: 2148 time(s)
Russian Federation


ЦИТАТА(Ghostb @ Aug 21 2019, 01:55:26) *
Это ж первая группа Ника Кейва) Но сыровато еще, мне больше его творчество, начиная с "Your Funeral ... My Trial" нравится.

Хочу еще залить альбомы Birthday Party и недостающие у Bad Seeds.
Register


Thanks:
(1) Ghostb,
Go to the top of the page
  Insert nick Quick quote
+Quote Post
post Aug 21 2019, 10:29:54
Post #4

Маньяк
**********
Group: Металариец
Posts: 1,447
Releases: 0
From: Харьков
On Forums: 9 years 10 months
Thanks: 540 time(s)
Ukraine


ЦИТАТА(vam1972 @ Aug 21 2019, 08:33:54) *
Хочу еще залить альбомы Birthday Party и недостающие у Bad Seeds

Было бы здорово, пусть народ просвещается) В последние годы это один из моих любимых музыкантов.
Go to the top of the page
  Insert nick Quick quote
+Quote Post

Reply to this topicStart new topic
1 User(s) are reading this topic (1 Guests and 0 Anonymous Users)
0 Members:

 



- Lo-Fi Version Support form
Copyrights and abuse reports form
Time is now: 24th August 2019 - 03:44:38