Welcome Guest ( Log In | Register )

> И неформату есть предел.

Рэп/хип-хоп/шансон/поп удаляются. Для них есть свои порталы.

> Saluki - Saluki (1976), Progressive/Jazz Rock
post Aug 15 2019, 23:04:12
Post #1

Правь статус, ####!111
**************
Group: Металариец
Posts: 42,462
Releases: 644
On Forums: 10 years 2 months
Thanks: 33322 time(s)
Russian Federation


(IMG:http://metalarea.org/images/audiocovers/2019_Aug/acov_tid325756_thumb.jpg)

*Artist: Saluki
*Album: Saluki
*Year: 1976
*Genre: Progressive/Jazz Rock/Fusion
*Country: Norway (IMG:http://metalarea.org/forum/style_images/flags/Norway.png)
*Format: mp3@CBR320kbps
*Size: 114MB

Tracklist:
1. Come Down 05:13
2. Autumn 05:52
3. The Awakening 03:45
4. Love to the Sun 09:32
5. Uranus in Cancer 06:26
6. Fantasy Suns 01:51
7. Hidden Path III 10:06
8. Take the Road Across the Bridge 07:17
******************************
Total playing time: 50:02

(IMG:http://metalarea.org/images/youtube.png)

Technical info
(IMG:http://metalarea.org/images/spectrogram/2019_Aug/ba6a868e5e6e582e194b0c6bdf9d35b5.png)
Input File: 01. Come Down.mp3
Channels : 2
Sample Rate : 44100
Precision : 16-bit
Duration : 00:05:13.28 = 13815648 samples = 23496 CDDA sectors
File Size : 12.6M
Bit Rate : 323k
Sample Encoding: MPEG audio (layer I, II or III)
Comments :
Title=Come Down
Artist=Saluki
Album=Saluki
Tracknumber=01
Year=1976
Genre=Progressive Rock



Register


Thanks:
(1) KKK1488,
Go to the top of the page
  Insert nick Quick quote
+Quote Post
 
Start new topic
Replies (1 - 2)
post Aug 16 2019, 08:49:44
Post #2

Правь статус, ####!111
**************
Group: Металариец
Posts: 42,462
Releases: 644
On Forums: 10 years 2 months
Thanks: 33322 time(s)
Russian Federation


Волшебно. (IMG:style_emoticons/default/20.gif)

Второй альбом вышел аж в 2018 году.
Go to the top of the page
  Insert nick Quick quote
+Quote Post
post Aug 16 2019, 11:09:46
Post #3

Cultist
**************
Group: Металариец
Posts: 3,771
Releases: 1220
From: Koenigsberg
On Forums: 12 years 7 months
Thanks: 7256 time(s)
Russian Federation


ЦИТАТА(vosmidesijatye @ Aug 16 2019, 01:04:12) *
*Genre: Progressive/Jazz Rock

не залазя в интернеты, вангую шо это фужон

а вот выпускать альбомы раз в 40 лет - это уже авангард (IMG:style_emoticons/default/headcrab.png)
Go to the top of the page
  Insert nick Quick quote
+Quote Post

Reply to this topicStart new topic
1 User(s) are reading this topic (1 Guests and 0 Anonymous Users)
0 Members:

 



- Lo-Fi Version Support form
Copyrights and abuse reports form
Time is now: 24th August 2019 - 04:14:22