Welcome Guest ( Log In | Register )

> Releases Upload / Добавление релизов

Добавить релиз тут / Click here to add release
Рекомендованные обменники / Recommended file shares

 
Reply to this topicStart new topic
> Blood Torrent - Torrent Of Hatred (2012), Black Metal/Black 'n' Roll
post Aug 16 2019, 16:41:43
Post #1

𝕻𝕬𝕹𝕬𝕮𝕰𝕬
******
Group: Металариец
Posts: 692
Releases: 388
On Forums: 7 years 3 months
Thanks: 5806 time(s)
Unknown


(IMG:http://metalarea.org/images/audiocovers/2019_Aug/acov_tid325779_thumb.jpg)

*Artist: Blood Torrent
*Album: Torrent Of Hatred
*Year: 2012
*Genre: Black Metal/Black 'n' Roll
*Country: Germany (IMG:http://metalarea.org/forum/style_images/flags/Germany.png)
*Format: mp3@CBR320kbps
*Size: 100MB

Tracklist:
1. Day 0 01:48
2. Torrent Of Hatred 05:37
3. Lycanthropic Spell 05:21
4. Madness Prevails 06:33
5. L.C.U. 07:12
6. Knives And Spikes 07:48
7. And It Marches Ahead 04:58
8. Anæmic 06:40
******************************
Total playing time: 45:57



Technical info
(IMG:http://metalarea.org/images/spectrogram/2019_Aug/995e6f82b79be2dcdc440101e0bf1ff9.png)
Input File: 02 - Torrent Of Hatred.mp3
Channels : 2
Sample Rate : 44100
Precision : 16-bit
Duration : 00:05:37.81 = 14897465 samples = 25335.8 CDDA sectors
File Size : 13.5M
Bit Rate : 320k
Sample Encoding: MPEG audio (layer I, II or III)
Comments :
Title=Torrent Of Hatred
Artist=Blood Torrent
Album=Torrent Of Hatred
Tracknumber=2
Year=2012
Genre=Black Metal/Black 'n' Roll



Register


Go to the top of the page
  Insert nick Quick quote
+Quote Post

Reply to this topicStart new topic
2 User(s) are reading this topic (2 Guests and 0 Anonymous Users)
0 Members:

 



- Lo-Fi Version Support form
Copyrights and abuse reports form
Time is now: 17th September 2019 - 16:17:49