Welcome Guest ( Log In | Register )

> Правила / Rules

Тут только для чтения лежат низкобитрейтные (<192kbps) релизы, для которых есть аналоги в высокобитрейтных форумах.

Here goes (and stand in read only mode) low bitrate releases (<192kbps) which were already replaced by high bitrate releases in corresponding forums.

> Reign In Blood - Missa Pro Defunctis (2019), Black Metal
post Aug 16 2019, 17:59:59
Post #1

Каждое ваше "Спасибо" помогает мне понять, что я делаю новости не напрасно.
**************
Group: Металариец
Posts: 2,284
Releases: 2012
From: Одесса
On Forums: 11 years 7 months
Thanks: 18074 time(s)
Ukraine


(IMG:http://metalarea.org/images/audiocovers/2019_Aug/acov_tid325785_thumb.jpg)

*Artist: Reign In Blood
*Album: Missa Pro Defunctis
*Year: 2019
*Genre: Black Metal
*Country: Germany (IMG:http://metalarea.org/forum/style_images/flags/Germany.png)
*Format: mp3@CBR128kbps (IMG:http://metalarea.org/images/bit_low.gif)
*Size: 40MB

Tracklist:
1. Invoke the Shapeless Ones 01:12
2. Dawn of a Dying Soul 04:30
3. Black Hole 04:46
4. Metamorphose with the Universe 06:52
5. Missa pro Defunctis 05:58
6. Domus Mortuorum 05:52
7. Anima 05:29
8. Wolfhour 06:06
9. Into Nothingness 01:25
******************************
Total playing time: 42:10



Extended info
Line - up:

D. Raise - Guitars, Vocals (Infernal Regency, ex-Dunkelgrafen)
Malus Deus - Guitars (lead), Bass (ex-Silberbach)

(IMG:https://www.metal-archives.com/images/9/2/5/3/92530_photo.jpg?2104)


Technical info
(IMG:http://metalarea.org/images/spectrogram/2019_Aug/5d18e0ea3e2f075046959d5e4c3db1bf.png)
Input File: 7 - Anima.mp3
Channels : 2
Sample Rate : 44100
Precision : 16-bit
Duration : 00:05:28.55 = 14489231 samples = 24641.5 CDDA sectors
File Size : 5.34M
Bit Rate : 130k
Sample Encoding: MPEG audio (layer I, II or III)
Comments :
Title=Anima
Artist=Reign In Blood
Album=Missa Pro Defunctis
Tracknumber=7
Year=2019
Genre=138



Register


Go to the top of the page
  Insert nick Quick quote
+Quote Post
 
Start new topic
Replies (1 - 2)
post Aug 26 2019, 09:11:50
Post #2

my church is black
*********
Group: Металариец
Posts: 908
Releases: 3
On Forums: 2 years 7 months
Thanks: 570 time(s)
Cape Verde


Годнота-то какая (IMG:style_emoticons/default/true_black.gif)
Go to the top of the page
  Insert nick Quick quote
+Quote Post
post Sep 4 2019, 20:28:21
Post #3

Добрейшей души Мегаманьяк
***********
Group: Металариец
Posts: 1,536
Releases: 0
From: Bashkortostan, Өфө
On Forums: 11 years 11 months
Thanks: 662 time(s)
Russian Federation


Да, неожиданно - незаурядный яростный, злобно-мрачный чёрный метальчик. Пошёл качать прошлый альбом.
Go to the top of the page
  Insert nick Quick quote
+Quote Post

Причина закрытия (Абигор 05-09-2019): Reign In Blood - Missa Pro Defunctis (2019)
Closed TopicStart new topic
1 User(s) are reading this topic (1 Guests and 0 Anonymous Users)
0 Members:

 



- Lo-Fi Version Support form
Copyrights and abuse reports form
Time is now: 29th January 2020 - 21:04:11