Welcome Guest ( Log In | Register )

> Releases Upload / Добавление релизов

Добавить релиз тут / Click here to add release
Рекомендованные обменники / Recommended file shares

> Borda's Rope - Roan's Fury Amid Shimmering Tides [demo] (2019), Raw Black Metal
post Aug 18 2019, 07:10:22
Post #1

Мегаманьяк
***********
Group: Металариец
Posts: 1,801
Releases: 1425
From: Prešov
On Forums: 5 years 6 months
Thanks: 34617 time(s)
Slovakia


(IMG:http://metalarea.org/images/audiocovers/2019_Aug/acov_tid325817_thumb.jpg)

*Artist: Borda's Rope
*Album: Roan's Fury Amid Shimmering Tides [demo]
*Year: 2019
*Genre: Raw Black Metal
*Country: United States (IMG:http://metalarea.org/forum/style_images/flags/United%20States.png)
*Format: mp3@CBR320kbps
*Size: 43MB

Tracklist:
1. Swing Wide the Gate of the Surfaced Lavron Tomb 06:59
2. Closer to the Grave in Azure Waters 06:15
3. The Gleam of Furnon's Blood in a Sea of Blades 04:29
******************************
Total playing time: 17:43

Extended info
Lampshade Tapes


Technical info
(IMG:http://metalarea.org/images/spectrogram/2019_Aug/f6908f3466df522a15a7e883fb42710b.png)
Input File: 01. Swing Wide the Gate of the Surfaced Lavron Tomb.mp3
Channels : 2
Sample Rate : 44100
Precision : 16-bit
Duration : 00:06:59.77 = 18511945 samples = 31482.9 CDDA sectors
File Size : 16.9M
Bit Rate : 323k
Sample Encoding: MPEG audio (layer I, II or III)
Comments :
Title=Swing Wide the Gate of the Surfaced Lavron Tomb
Artist=Borda's Rope
Album=Roan's Fury Amid Shimmering Tides
Tracknumber=01/03
Year=2019
Genre=Raw Black Metal



Register


Go to the top of the page
  Insert nick Quick quote
+Quote Post
 
Start new topic
Replies (1 - 2)
post Aug 18 2019, 10:06:31
Post #2

Литр
*
Group: Подсевший
Posts: 87
Releases: 0
On Forums: 2 years 5 months
Thanks: 55 time(s)
Zimbabwe


ЦИТАТА(Velmi @ Aug 18 2019, 10:10:22) *
*Country: United States

proof?
Go to the top of the page
  Insert nick Quick quote
+Quote Post
post Aug 18 2019, 12:48:17
Post #3

While Waiting the Worms
********
Group: Металариец
Posts: 891
Releases: 0
On Forums: 5 years 9 months
Thanks: 1204 time(s)
Unknown


Go to the top of the page
  Insert nick Quick quote
+Quote Post

Reply to this topicStart new topic
1 User(s) are reading this topic (1 Guests and 0 Anonymous Users)
0 Members:

 



- Lo-Fi Version Support form
Copyrights and abuse reports form
Time is now: 14th October 2019 - 13:00:13