Welcome Guest ( Log In | Register )

> Releases Upload / Добавление релизов

Добавить релиз тут / Click here to add release
Рекомендованные обменники / Recommended file shares

 
Reply to this topicStart new topic
> Reckless Redemption - Reckless Redemption (2019), Deathcore/Metalcore
post Aug 18 2019, 12:25:14
Post #1

MDM-Thrash Metal
**************
Group: Металариец
Posts: 8,689
Releases: 604
From: Одесса
On Forums: 12 years 1 month
Thanks: 17414 time(s)
Ukraine


(IMG:http://metalarea.org/images/audiocovers/2019_Aug/acov_tid325829_thumb.jpg)

*Artist: Reckless Redemption
*Album: Reckless Redemption
*Year: 2019
*Genre: Deathcore/Metalcore
*Country: United States (IMG:http://metalarea.org/forum/style_images/flags/United%20States.png)
*Format: mp3@CBR320kbps
*Size: 76MB

Tracklist:
01. Reckless Redemption
02. Wolves
03. Cut Throat
04. Blacklisted
05. Desecrated Dreams
06. State of Decay
07. Buried in Beacon Hills
08. S.O.L.
09. No Filter
10. Eternal Misery
******************************
Total playing time: 29:31



(IMG:http://metalarea.org/images/youtube.png)
(IMG:http://metalarea.org/images/youtube.png)

Technical info
(IMG:http://metalarea.org/images/spectrogram/2019_Aug/ef4af2e5854d3920125ed6271c35d6bd.png)
Input File: 02. Wolves.mp3
Channels : 2
Sample Rate : 44100
Precision : 16-bit
Duration : 00:02:58.38 = 7866426 samples = 13378.3 CDDA sectors
File Size : 7.69M
Bit Rate : 345k
Sample Encoding: MPEG audio (layer I, II or III)
Comments :
Title=Wolves
Artist=Reckless Redemption
Album=Reckless Redemption
Tracknumber=2/10
Year=2019



Register


Go to the top of the page
  Insert nick Quick quote
+Quote Post

Reply to this topicStart new topic
1 User(s) are reading this topic (1 Guests and 0 Anonymous Users)
0 Members:

 



- Lo-Fi Version Support form
Copyrights and abuse reports form
Time is now: 20th September 2019 - 12:40:34