Welcome Guest ( Log In | Register )

> Releases Upload / Добавление релизов

Добавить релиз тут / Click here to add release
Рекомендованные обменники / Recommended file shares

> Debrained - Debrained [ep] (2019), Death Metal
post Aug 18 2019, 14:19:01
Post #1

Правь статус, ####!111
**************
Group: Металариец
Posts: 18,498
Releases: 12520
From: Г.Харьков
On Forums: 7 years 4 months
Thanks: 212063 time(s)
Unknown


(IMG:https://metalarea.org/images/audiocovers/2019_Aug/acov_tid325840_thumb.jpg)

*Artist: Debrained
*Album: Debrained [ep]
*Year: 2019
*Genre: Death Metal
*Country: United States (IMG:https://metalarea.org/forum/style_images/flags/United%20States.png)
*Format: mp3@CBR320kbps
*Size: 40MB

Tracklist:
1. All Enslaved 03:03
2. Galantamine (take as prescribed) 04:43
3. Final Hour 03:26
4. Exiled at Birth 03:03
5. Will of Hate 03:03
******************************
Total playing time: 17:18




Extended info
Daniel McGill - Guitar
Kenny Johnson - Drums
Chris Mulcahy - Vocals
Dan Kunkel - Bass Guitar
Trent Cook - Guitar


Technical info
(IMG:https://metalarea.org/images/spectrogram/2019_Aug/fc50a6ddcfbdda2d667a00baec85b185.png)
Input File: 02 - Galantamine.mp3
Channels : 2
Sample Rate : 44100
Precision : 16-bit
Duration : 00:04:43.13 = 12486033 samples = 21234.8 CDDA sectors
File Size : 11.4M
Bit Rate : 323k
Sample Encoding: MPEG audio (layer I, II or III)
Comments :
Title=Galantamine
Artist=Debrained
Album=Debrained
Tracknumber=2
Year=2019-04-22
Genre=Metal
Discnumber=1



Register


Go to the top of the page
  Insert nick Quick quote
+Quote Post
 
Start new topic
Replies (1 - 1)
post Aug 18 2019, 23:28:43
Post #2

Правь статус, ####!111
**************
Group: Металариец
Posts: 18,498
Releases: 12520
From: Г.Харьков
On Forums: 7 years 4 months
Thanks: 212063 time(s)
Unknown


FLAC (Tracks) 117 mb
Register


Thanks:
(1) Olethros,
Go to the top of the page
  Insert nick Quick quote
+Quote Post

Reply to this topicStart new topic
1 User(s) are reading this topic (1 Guests and 0 Anonymous Users)
0 Members:

 



- Lo-Fi Version Support form
Copyrights and abuse reports form
Time is now: 16th September 2019 - 23:31:09