Welcome Guest ( Log In | Register )

 
Reply to this topicStart new topic
> Vorágine - Demo Ii [demo] (2017), Black/Death Metal
post Aug 18 2019, 15:06:55
Post #1

Правь статус, ####!111
**************
Group: Металариец
Posts: 3,998
Releases: 1019
From: Brazil
On Forums: 7 years 9 months
Thanks: 37823 time(s)
Brazil


(IMG:https://metalarea.org/images/audiocovers/2019_Aug/acov_tid325843_thumb.jpg)

*Artist: Vorágine
*Album: Demo Ii [demo]
*Year: 2017
*Genre: Black/Death Metal
*Country: Peru (IMG:https://metalarea.org/forum/style_images/flags/Peru.png)
*Format: mp3@VBR253kbps
*Size: 19MB

Tracklist:
1. Undead
2. No One Will Survive
3. Nightmares Made Flesh
4. Numbed By The Mist
5. Silence Of Death
******************************
Total playing time: 9:49

Extended info
Terminal World Records ‎– TWR-010, MercyfulHell Productions ‎– MHP-017


Technical info
(IMG:https://metalarea.org/images/spectrogram/2019_Aug/bc8a59fc97319d53f8908fddcb7f27c7.png)
Input File: 03 Nightmares Made Flesh.mp3
Channels : 2
Sample Rate : 44100
Precision : 16-bit
Duration : 00:01:31.95 = 4055039 samples = 6896.32 CDDA sectors
File Size : 3.03M
Bit Rate : 263k
Sample Encoding: MPEG audio (layer I, II or III)
Comments :
Title=Nightmares Made Flesh
Artist=Vorágine
Album=Demo ll
Tracknumber=3/5
Year=2017
Discnumber=1/1



Register


Go to the top of the page
  Insert nick Quick quote
+Quote Post

Reply to this topicStart new topic
1 User(s) are reading this topic (1 Guests and 0 Anonymous Users)
0 Members:

 



- Lo-Fi Version Support form
Copyrights and abuse reports form
Time is now: 21st November 2019 - 08:46:03