Welcome Guest ( Log In | Register )

> Forum rules / Правила раздела

Here go releases which can't go to New releases forums due lack of information, stolen links or incorrect data and just founded in other sites links with minimum info. Reissue of this releases through Add release form with added/corrected data, info and own links highly welcomed.

Сюда уходят релизы, не пропущенные в основные релизные форумы по причинам отсутствия, недостаточности или неверности/некорректности сопровождающей информации, содержащие ссылки, указывающие на файлы, залитые не автором темы, а так же просто найденные где-то ссылки с минимумом информации. Переоформление тем отсюда через форму Добавления релиза с перезаливкой ссылок крайне приветствуется.

 
Reply to this topicStart new topic
> Midnight - Downloads From Midnight's Myspace (+Bonus) [bootleg] (2009), Heavy Metal (D)
post Aug 18 2019, 18:34:16
Post #1

Пять Литров
*****
Group: Металариец
Posts: 470
Releases: 101
On Forums: 7 months 3 weeks
Thanks: 1020 time(s)
Canada


(IMG:https://metalarea.org/images/audiocovers/2019_Aug/acov_tid325852_thumb.jpg)

*Artist: Midnight
*Album: Downloads From Midnight's Myspace (+Bonus) [bootleg]
*Year: 2009
*Genre: Heavy Metal
*Country: United States (IMG:https://metalarea.org/forum/style_images/flags/United%20States.png)
*Format: mp3@CBR320kbps
*Size: 194MB

Tracklist:
1. Genius - Terminate 05:40
2. Midnight - 7 Angels (full electric) [32kbps] 05:29
3. Midnight - Angel (Sarah McLachlan cover) 04:39
4. Midnight - Berber Trails 06:29
5. Midnight - Carnival 2 05:46
6. Midnight - Carnival 05:12
7. Midnight - Descending Into Madness Trailer 03:25
8. Midnight - Little Aquafina Pre-Production Demo 06:59
9. Midnight - Lost Reflection '08 (4:58
10. Midnight - Pain 05:19
11. Warzone XXV 25 - Midnight - Pain 05:02
12. Midnight - Painted Skies (with Jon Oliva) 06:08
13. Midnight - The Deep 07:48
14. My Chemical Romance - Midnight - The End 03:49
15. Midnight - The End (4min 47sec) 04:47
16. Midnight - Through Glass (Stone Sour cover) 05:33
17. Midnight - War 04:39
******************************
Total playing time: 1:31:42

Extended info
Crimson Glory singer.
Thanks to the original uploader, jasonkont.

https://www.metal-archives.com/artists/Midnight/30660


Technical info
(IMG:https://metalarea.org/images/spectrogram/2019_Aug/bcc2ae039b7d249544a9df659269cf2e.png)
Input File: Midnight - Descending Into Madness Trailer.mp3
Channels : 2
Sample Rate : 44100
Precision : 16-bit
Duration : 00:03:25.31 = 9054171 samples = 15398.2 CDDA sectors
File Size : 8.22M
Bit Rate : 320k
Sample Encoding: MPEG audio (layer I, II or III)
Comments :
Title=Midnight - Descending Into Madness Trailer
Tracknumber=1
Year=2012



Register


Go to the top of the page
  Insert nick Quick quote
+Quote Post

Reply to this topicStart new topic
2 User(s) are reading this topic (2 Guests and 0 Anonymous Users)
0 Members:

 



- Lo-Fi Version Support form
Copyrights and abuse reports form
Time is now: 21st September 2019 - 01:50:56