Welcome Guest ( Log In | Register )

> Releases Upload / Добавление релизов

Добавить релиз тут / Click here to add release
Рекомендованные обменники / Recommended file shares

> Acheronthia Styx - Dimension Asymmetric Division (2019), Melodic Death Metal
post Aug 18 2019, 18:42:17
Post #1

Правь статус, ####!111
**************
Group: Металариец
Posts: 18,588
Releases: 12581
From: Г.Харьков
On Forums: 7 years 4 months
Thanks: 213209 time(s)
Unknown


(IMG:https://metalarea.org/images/audiocovers/2019_Aug/acov_tid325853_thumb.jpg)

*Artist: Acheronthia Styx
*Album: Dimension Asymmetric Division
*Year: 2019
*Genre: Melodic Death Metal
*Country: Chile (IMG:https://metalarea.org/forum/style_images/flags/Chile.png)
*Format: mp3@CBR320kbps
*Size: 82MB

Tracklist:
1. The frencuency 00:54
2. Dying Sunshines 04:08
3. The Awakening 04:42
4. Day Zero 03:36
5. Into the Tesseract 05:05
6. Asymmetric Division 04:05
7. Embers from the past 03:25
8. Revelations 04:40
9. The Last Answer 04:31
10. The pressure of the womb 04:24
******************************
Total playing time: 39:30



Extended info
Alvaro Alvial Drums
Esteban Andreäss Vocals, Guitars


Technical info
(IMG:https://metalarea.org/images/spectrogram/2019_Aug/0793c755eaac69ddbacc6e4a6736bbca.png)
Input File: 03. The Awakening.mp3
Channels : 2
Sample Rate : 44100
Precision : 16-bit
Duration : 00:04:02.35 = 10687811 samples = 18176.5 CDDA sectors
File Size : 9.77M
Bit Rate : 323k
Sample Encoding: MPEG audio (layer I, II or III)
Comments :
Title=The Awakening
Artist=Acheronthia Styx
Album=Dimension Asymmetric Division
Tracknumber=3/10
Genre=9
Discnumber=1/1



Register


Go to the top of the page
  Insert nick Quick quote
+Quote Post
 
Start new topic
Replies (1 - 1)
post Aug 19 2019, 09:06:36
Post #2

hearer & reader
**************
Group: Металариец
Posts: 8,045
Releases: 104
From: Moscow
On Forums: 12 years 2 weeks
Thanks: 7527 time(s)
Russian Federation


Go to the top of the page
  Insert nick Quick quote
+Quote Post

Reply to this topicStart new topic
1 User(s) are reading this topic (1 Guests and 0 Anonymous Users)
0 Members:

 



- Lo-Fi Version Support form
Copyrights and abuse reports form
Time is now: 21st September 2019 - 16:12:46