Welcome Guest ( Log In | Register )

> Releases Upload / Добавление релизов

Добавить релиз тут / Click here to add release
Рекомендованные обменники / Recommended file shares

 
Reply to this topicStart new topic
> Antartandes - Illvsio Machina [ep] (2019), Black Metal
post Aug 18 2019, 19:03:57
Post #1

Правь статус, ####!111
**************
Group: Металариец
Posts: 18,486
Releases: 12510
From: Г.Харьков
On Forums: 7 years 4 months
Thanks: 211916 time(s)
Unknown


(IMG:https://metalarea.org/images/audiocovers/2019_Aug/acov_tid325855_thumb.jpg)

*Artist: Antartandes
*Album: Illvsio Machina [ep]
*Year: 2019
*Genre: Black Metal
*Country: Chile (IMG:https://metalarea.org/forum/style_images/flags/Chile.png)
*Format: mp3@CBR320kbps
*Size: 77MB

Tracklist:
1. Lucifer Arquetipo Acorporeo 07:23
2. Explosion Implosion 06:08
3. Explosion Implosion (Orquestal) 06:11
4. Agonic Phantom 04:40
5. In the Black Circle 04:18
6. This Is the Flame 04:09
******************************
Total playing time: 32:49




Extended info
Arminius Guitars
Argoth Keyboards
Tempenor Drums
All Stumpf Guitars, Vocals


Technical info
(IMG:https://metalarea.org/images/spectrogram/2019_Aug/6d44566f9a5dd4f0942ecbe5334d85b5.png)
Input File: 03 - Explosion Implosion (Orquestal).mp3
Channels : 2
Sample Rate : 44100
Precision : 16-bit
Duration : 00:06:11.72 = 16392676 samples = 27878.7 CDDA sectors
File Size : 15.1M
Bit Rate : 324k
Sample Encoding: MPEG audio (layer I, II or III)
Comments :
Title=Explosion Implosion (Orquestal)
Artist=Antartandes
Album=Illvsio Machina
Tracknumber=3
Year=2019-08-17
Discnumber=1



Register


Go to the top of the page
  Insert nick Quick quote
+Quote Post

Reply to this topicStart new topic
1 User(s) are reading this topic (1 Guests and 0 Anonymous Users)
0 Members:

 



- Lo-Fi Version Support form
Copyrights and abuse reports form
Time is now: 16th September 2019 - 01:17:22