Welcome Guest ( Log In | Register )

> И неформату есть предел.

Рэп/хип-хоп/шансон/поп удаляются. Для них есть свои порталы.

> Jess By The Lake - Under The Red Light Shine (2019), Psychedelic Rock
post Aug 18 2019, 20:47:37
Post #1

Попсовик от брутала
**************
Group: Металариец
Posts: 7,854
Releases: 78
From: Минск
On Forums: 12 years 10 months
Thanks: 7372 time(s)
Belarus


(IMG:http://metalarea.org/images/audiocovers/2019_Aug/acov_tid325856_thumb.jpg)

*Artist: Jess By The Lake
*Album: Under The Red Light Shine
*Year: 2019
*Genre: Psychedelic Rock
*Country: Finland (IMG:http://metalarea.org/forum/style_images/flags/Finland.png)
*Format: mp3@CBR320kbps
*Size: 96MB

Tracklist:
01. Under the Red Light Shine 4:24
02. Freezing Burn 3:44
03. The Wait 4:55
04. Halo (Ghosts in the Flames) 4:40
05. Nightmare 3:18
06. Legacy Crown 7:21
07. My Hands 4:19
08. Interstellar 8:29
******************************
Total playing time: 41:10

Extended info
Jasmin Saarela from Jess and the Ancient Ones


Technical info
(IMG:http://metalarea.org/images/spectrogram/2019_Aug/ea5689019fb1a1d61389e4413c5475a3.png)
Input File: 01. Under The Red Light Shine.mp3
Channels : 2
Sample Rate : 44100
Precision : 16-bit
Duration : 00:04:23.99 = 11641739 samples = 19798.9 CDDA sectors
File Size : 10.6M
Bit Rate : 321k
Sample Encoding: MPEG audio (layer I, II or III)
Comments :
Title=Under The Red Light Shine
Artist=Jess By The Lake
Album=Under The Red Light Shine
Tracknumber=1
Year=2019
Genre=Psychedelic Rock



Register


Go to the top of the page
  Insert nick Quick quote
+Quote Post
 
Start new topic
Replies (1 - 2)
post Aug 19 2019, 08:41:27
Post #2

Правь статус, ####!111
**************
Group: Металариец
Posts: 49,245
Releases: 874
On Forums: 12 years 4 months
Thanks: 44814 time(s)
Russian Federation


Большое спасибо, знатная тётя. (IMG:style_emoticons/default/27.gif)
Go to the top of the page
  Insert nick Quick quote
+Quote Post
post Apr 15 2020, 15:17:49
Post #3

Правь статус, ####!111
**************
Group: Металариец
Posts: 49,245
Releases: 874
On Forums: 12 years 4 months
Thanks: 44814 time(s)
Russian Federation


Отличный образчик стиля. Альбом зело хорош, только первые 2 композиции не очень вкатили, вокальные экзерсисы не понравились, зато остальной материалец приятен и одухотворяющ.
Go to the top of the page
  Insert nick Quick quote
+Quote Post

Reply to this topicStart new topic
1 User(s) are reading this topic (1 Guests and 0 Anonymous Users)
0 Members:

 



- Lo-Fi Version Support form
Copyrights and abuse reports form
Time is now: 16th October 2021 - 02:46:06