Welcome Guest ( Log In | Register )

> Releases Upload / Добавление релизов

Добавить релиз тут / Click here to add release
Рекомендованные обменники / Recommended file shares

> Thessa - Duality (2019), Progressive Metal
post Aug 19 2019, 06:45:48
Post #1

Serial Uploader
Group Icon
Group: V.I.P
Posts: 36,080
Releases: 34281
From: Lithuania
On Forums: 11 years 3 months
Thanks: 397670 time(s)
Lithuania


(IMG:http://metalarea.org/images/audiocovers/2019_Aug/acov_tid325862_thumb.jpg)

*Artist: Thessa
*Album: Duality
*Year: 2019
*Genre: Progressive Metal
*Country: France (IMG:http://metalarea.org/forum/style_images/flags/France.png)
*Format: mp3@CBR320kbps
*Size: 155MB

Tracklist:
01. Dead and Gone
02. The Horus Heresy
03. Forgotten
04. When You Hear Me Now (feat. Guillaume Chenin)
05. Hatred
06. Lucid
07. Lost Promises
08. Ascendancy
09. Shattered
10. When You Hear Me Now (feat. Ryan Mitchell & Guillaume Chenin)
11. When You Hear Me Now (Acoustic Demo)
12. Afterglow
******************************
Total playing time: 1:02:43



Technical info
(IMG:http://metalarea.org/images/spectrogram/2019_Aug/0603d45c1e79fe76a3e6ce062c71bd4d.png)
Input File: 02. The Horus Heresy.mp3
Channels : 2
Sample Rate : 44100
Precision : 16-bit
Duration : 00:07:04.12 = 18703868 samples = 31809.3 CDDA sectors
File Size : 17.8M
Bit Rate : 337k
Sample Encoding: MPEG audio (layer I, II or III)
Comments :
Title=The Horus Heresy
Artist=Thessa
Album=Duality
Tracknumber=2/12
Year=2019



Register


Go to the top of the page
  Insert nick Quick quote
+Quote Post
 
Start new topic
Replies (1 - 2)
post Aug 19 2019, 11:18:22
Post #2

21st Century Schizoid Man
**************
Group: Металариец
Posts: 5,988
Releases: 73
From: Moscow
On Forums: 11 years 4 months
Thanks: 4669 time(s)
Russian Federation




Go to the top of the page
  Insert nick Quick quote
+Quote Post
post Aug 19 2019, 12:15:25
Post #3

Ёлд ХеллоВяйне
Group Icon
Group: V.I.P
Posts: 27,731
Releases: 132
From: Питер
On Forums: 12 years 10 months
Thanks: 15673 time(s)
Russian Federation


Go to the top of the page
  Insert nick Quick quote
+Quote Post

Reply to this topicStart new topic
2 User(s) are reading this topic (2 Guests and 0 Anonymous Users)
0 Members:

 



- Lo-Fi Version Support form
Copyrights and abuse reports form
Time is now: 16th September 2019 - 23:08:59