Welcome Guest ( Log In | Register )

> Releases Upload / Добавление релизов

Добавить релиз тут / Click here to add release
Рекомендованные обменники / Recommended file shares

> Shroud Of Despondency - Befouled By The Sacred: Love Is A Callus (2019), Progressive Black/Death/Doom Metal
post Aug 19 2019, 10:24:10
Post #1

...
**************
Group: Металариец
Posts: 3,339
Releases: 1417
From: МЕЩЁРА
On Forums: 11 years 5 months
Thanks: 40469 time(s)
Russian Federation


(IMG:http://metalarea.org/images/audiocovers/2019_Aug/acov_tid325870_thumb.jpg)

*Artist: Shroud Of Despondency
*Album: Befouled By The Sacred: Love Is A Callus
*Year: 2019
*Genre: Progressive Black/Death/Doom Metal
*Country: United States (IMG:http://metalarea.org/forum/style_images/flags/United%20States.png)
*Format: mp3@CBR320kbps
*Size: 164MB

Tracklist:
1. A Callous Distance 03:50
2. Aphotic Conditions 06:00
3. Misery Of An Immense Age 07:25
4. Wolfbiter 12:07
5. The Law Of Diminishing Returns 07:35
6. Abundant And Nullified 10:05
7. The Metamorphosis 08:28
8. Cracked Hull 16:03
******************************
Total playing time: 1:11:33



Technical info
(IMG:http://metalarea.org/images/spectrogram/2019_Aug/d7ccc48d3f45fd533c26ef07c4398c55.png)
Input File: 2. Aphotic Conditions.mp3
Channels : 2
Sample Rate : 44100
Precision : 16-bit
Duration : 00:06:00.41 = 15893861 samples = 27030.4 CDDA sectors
File Size : 14.5M
Bit Rate : 322k
Sample Encoding: MPEG audio (layer I, II or III)
Comments :
Title=Aphotic Conditions
Artist=Shroud Of Despondency
Album=Befouled by the Sacred:Love Is a Callus
Tracknumber=2
Year=2019



Register


Go to the top of the page
  Insert nick Quick quote
+Quote Post
 
Start new topic
Replies (1 - 1)
post Aug 29 2019, 15:14:50
Post #2

Литр
*
Group: Подсевший
Posts: 99
Releases: 0
On Forums: 12 years 4 months
Thanks: 5 time(s)
Belgium


Please re-up! Downloadlimit reached...
Go to the top of the page
  Insert nick Quick quote
+Quote Post

Reply to this topicStart new topic
2 User(s) are reading this topic (2 Guests and 0 Anonymous Users)
0 Members:

 



- Lo-Fi Version Support form
Copyrights and abuse reports form
Time is now: 22nd September 2019 - 00:24:56