Welcome Guest ( Log In | Register )

> Releases Upload / Добавление релизов

Добавить релиз тут / Click here to add release
Рекомендованные обменники / Recommended file shares

> Illimitable Dolor & Promethean Misery - Illimitable Dolor & Promethean Misery [split] (2019), Atmospheric Doom/Death Metal | Atmospheric Doom Metal
post Aug 19 2019, 10:25:37
Post #1

...
**************
Group: Металариец
Posts: 3,339
Releases: 1417
From: МЕЩЁРА
On Forums: 11 years 5 months
Thanks: 40469 time(s)
Russian Federation


(IMG:http://metalarea.org/images/audiocovers/2019_Aug/acov_tid325871_thumb.jpg)

*Artist: Illimitable Dolor & Promethean Misery
*Album: Illimitable Dolor & Promethean Misery [split]
*Year: 2019
*Genre: Atmospheric Doom/Death Metal | Atmospheric Doom Metal
*Country: Australia (IMG:http://metalarea.org/forum/style_images/flags/Australia.png) | Australia (IMG:http://metalarea.org/forum/style_images/flags/Australia.png)
*Format: mp3@CBR320kbps
*Size: 121MB

Tracklist:
Illimitable Dolor:
1. Kitsuni 06:57
2. Tamtu 18:45
Promethean Misery:
3. Mind At Wrest 13:51
4. Shadow Fell And Followed 13:39
******************************
Total playing time: 53:12






Technical info
(IMG:http://metalarea.org/images/spectrogram/2019_Aug/d82b19860663022a8b4a373c03494bfc.png)
Input File: 1. Kitsuni.mp3
Channels : 2
Sample Rate : 44100
Precision : 16-bit
Duration : 00:06:57.36 = 18405488 samples = 31301.9 CDDA sectors
File Size : 16.7M
Bit Rate : 320k
Sample Encoding: MPEG audio (layer I, II or III)
Comments :
Title=Kitsuni
Artist=Illimitable Dolor
Album=Illimitable Dolor & Promethean Misery
Tracknumber=1
Year=2019
Genre=Doom Metal



Register


Go to the top of the page
  Insert nick Quick quote
+Quote Post
 
Start new topic
Replies (1 - 2)
post Aug 22 2019, 09:26:33
Post #2

Шесть Литров
******
Group: Металариец
Posts: 590
Releases: 0
From: South Of Heaven
On Forums: 12 years 1 month
Thanks: 243 time(s)
Ukraine


Интересный сплит ,особенно его первая часть... (IMG:style_emoticons/default/pray.gif)
Релизёру (IMG:style_emoticons/default/9.gif) (IMG:style_emoticons/default/9.gif)
Go to the top of the page
  Insert nick Quick quote
+Quote Post
post Sep 18 2019, 15:17:03
Post #3

Кожаный ублюдок
**************
Group: Металариец
Posts: 3,082
Releases: 6
From: Алчевск (early) Некросибирск (now)
On Forums: 10 years 4 months
Thanks: 1844 time(s)
Russian Federation


Вообще сплиты как релизы оценивать сложно, да и не факт, что это вообще имеет какой-то смысл. Ведь, по сути, что из себя представляет такого рода произведение? Просто несколько треков от двух исполнителей, которых мы зачастую знаем и так. Такая же получается и в данном случае.
Два австралийских коллектива Illimitable Dolor и Promethean Misery. В первом случае это именно группа исполняющая хороший дум дэт, хотя мне заходит не всегда, во втором это ван-вумен проект исполняющий нечто более близкое к неоклассическому думу, мне заходит всегда, по крайней мере заходило всё то, что я слушал до этого. Очень запоминающаяся музыка в обоих случаях и очень сложно спутать с кем-то, прям с первых минут понимаешь, что слушаешь ты конкретно этого исполнителя и никому больше данные композиции принадлежать не могут.
В общем вот такие впечатления, думаю не все согласятся, но тут уж на вкус и цвет, как говорится. Очень советую послушать тем, кто не знаком с творчеством обоих, а потом послушать и все остальное потянет, скорее всего. (IMG:style_emoticons/default/9.gif) (IMG:style_emoticons/default/9.gif) (IMG:style_emoticons/default/9.gif)
Go to the top of the page
  Insert nick Quick quote
+Quote Post

Reply to this topicStart new topic
1 User(s) are reading this topic (1 Guests and 0 Anonymous Users)
0 Members:

 



- Lo-Fi Version Support form
Copyrights and abuse reports form
Time is now: 20th September 2019 - 08:52:43