Welcome Guest ( Log In | Register )

> И неформату есть предел.

Рэп/хип-хоп/шансон/поп удаляются. Для них есть свои порталы.

 
Reply to this topicStart new topic
> Obereit - Для Мира Мёртвые Цветы [single] (2018), Psychedelic Dark Rock/Post Dark Metal/Spoken Word
post Aug 22 2019, 12:46:28
Post #1

Group: Дух
Posts: 3
Releases: 2
On Forums: 4 months 3 weeks
Thanks: 13 time(s)
Russian Federation


(IMG:http://metalarea.org/images/audiocovers/2019_Aug/acov_tid326111_thumb.jpg)

*Artist: Obereit
*Album: Для Мира Мёртвые Цветы [single]
*Year: 2018
*Genre: Psychedelic Dark Rock/Post Dark Metal/Spoken Word
*Country: Russian Federation (IMG:http://metalarea.org/forum/style_images/flags/Russian%20Federation.png)
*Format: mp3@CBR320kbps
*Size: 17MB

Tracklist:
1. Для Мира Мёртвые Цветы
******************************
Total playing time: 7:50



Technical info
(IMG:http://metalarea.org/images/spectrogram/2019_Aug/457154ed4695b2f2c90b5306d7b94433.png)
Input File: OBEREIT Для мира мертвые цветы 2018.mp3
Channels : 2
Sample Rate : 44100
Precision : 16-bit
Duration : 00:07:49.09 = 20686781 samples = 35181.6 CDDA sectors
File Size : 18.8M
Bit Rate : 320k
Sample Encoding: MPEG audio (layer I, II or III)



Register


Thanks:
Go to the top of the page
  Insert nick Quick quote
+Quote Post

Reply to this topicStart new topic
1 User(s) are reading this topic (1 Guests and 0 Anonymous Users)
0 Members:

 



- Lo-Fi Version Support form
Copyrights and abuse reports form
Time is now: 15th September 2019 - 19:32:38