Welcome Guest ( Log In | Register )

> 

Здесь релизы с живыми прямыми ссылками на lossless

> Judas Priest - Madison Square Madness, NY, USA 1984 [bootleg] (1984), NWOBHM
post Aug 23 2019, 06:25:55
Post #1

Пять Литров
*****
Group: Металариец
Posts: 419
Releases: 222
From: Dark
On Forums: 12 years 9 months
Thanks: 1411 time(s)
Romania


(IMG:http://metalarea.org/images/audiocovers/2019_Aug/acov_tid326213_thumb.png)

*Artist: Judas Priest
*Album: Madison Square Madness, NY, USA 1984 [bootleg]
*Year: 1984
*Genre: NWOBHM
*Country: United Kingdom (IMG:http://metalarea.org/forum/style_images/flags/United%20Kingdom.png)
*Format: mp3@CBR320kbps
*Size: 85MB

Tracklist:
CD 1:
01 Love Bites 06:20
02 Jawbreaker 04:19
03 Grinder 04:24
04 Metal Gods 04:23
05 Breaking the Law 03:25
06 Sinner 08:37
07 Desert Plains 05:16
08 Some Heads Are Gonna Roll 04:43
09 The Sentinel 05:32
10 Rock Hard, Ride Free 06:51
11 Night Comes Down 04:40
CD 2:
01 The Hellion/Electric Eye 04:28
02 Heavy Duty/Defenders of the Faith 05:27
03 Freewheel Burning 04:58
04 Victim of Changes 10:28
05 The Green Manalishi 05:57
06 Living After Midnight 05:41
07 Hell Bent for Leather 05:59
08 You've Got Another Thing Comin' 10:49
******************************
Total playing time: 1:52:17

Technical info
(IMG:http://metalarea.org/images/spectrogram/2019_Aug/171622ed074332ce7e210a1ed798c6ae.png)
Input File: 02. Jawbreaker.mp3
Channels : 2
Sample Rate : 44100
Precision : 16-bit
Duration : 00:04:19.54 = 11445890 samples = 19465.8 CDDA sectors
File Size : 10.4M
Bit Rate : 320k
Sample Encoding: MPEG audio (layer I, II or III)
Comments :
Title=Jawbreaker
Artist=Judas Priest
Album=Madison Square Madness Disc 1
Tracknumber=02
Year=1984



Register


This post has been edited by Borderline1991: Aug 24 2019, 07:35:37


Go to the top of the page
  Insert nick Quick quote
+Quote Post
 
Start new topic
Replies (1 - 2)
post Dec 3 2019, 10:13:40
Post #2

Forever Underground
**************
Group: Металариец
Posts: 6,314
Releases: 0
On Forums: 4 years 8 months
Thanks: 7329 time(s)
Unknown


QUOTE(Wail @ Sep 29 2019, 01:01:31) *
Please can you reup

+ 1 (IMG:style_emoticons/default/pray.gif)
Go to the top of the page
  Insert nick Quick quote
+Quote Post
post Dec 4 2019, 17:33:52
Post #3


Group Icon
Group: S-moderation team
Posts: 12,910
Releases: 1439
From: Zagreb
On Forums: 8 years 9 months
Thanks: 56063 time(s)
Croatia


Register


Go to the top of the page
  Insert nick Quick quote
+Quote Post

Reply to this topicStart new topic
1 User(s) are reading this topic (1 Guests and 0 Anonymous Users)
0 Members:

 



- Lo-Fi Version Support form
Copyrights and abuse reports form
Time is now: 12th December 2019 - 14:21:55