Welcome Guest ( Log In | Register )

> И неформату есть предел.

Рэп/хип-хоп/шансон/поп удаляются. Для них есть свои порталы.

 
Reply to this topicStart new topic
> Various Artists - Hard Core Logo [ost] (1998), Punk (D2142)
post Aug 24 2019, 01:10:12
Post #1

Пять Литров
*****
Group: Металариец
Posts: 470
Releases: 101
On Forums: 7 months 2 weeks
Thanks: 1018 time(s)
Canada


(IMG:https://metalarea.org/images/audiocovers/2019_Aug/acov_tid326342_thumb.jpg)

*Artist: Various Artists
*Album: Hard Core Logo [ost]
*Year: 1998
*Genre: Punk
*Country: Canada (IMG:https://metalarea.org/forum/style_images/flags/Canada.png)
*Format: mp3@VBR218kbps
*Size: 56MB

Tracklist:
1. Swamp Baby, Hugh Dillon - Who the Hell Do You Think You Are 02:56
2. Swamp Baby, Hugh Dillon - Rock 'N Roll Is Fat and Ugly 01:55
3. Swamp Baby, Hugh Dillon - Something's Gonna Die Tonight 03:19
4. Swamp Baby, Hugh Dillon - Blue Tattoo 03:20
5. Swamp Baby, Hugh Dillon - Sonic Reducer [Dead Boys cover] 02:56
6. Swamp Baby, Hugh Dillon - Edmonton Block Heater 03:02
7. Swamp Baby, Hugh Dillon - China White (Ten buck F**k) 04:48
8. Swamp Baby, Hugh Dillon - One Foot In The Gutter 01:54
9. Swamp Baby - Hawaii [Young Canadians Cover] 01:39
10. Teenage Head - Bonerack 03:36
11. Ramones - Touring 02:51
12. Chris Spedding - Wild Wild Women 03:19
******************************
Total playing time: 35:35

Technical info
(IMG:https://metalarea.org/images/spectrogram/2019_Aug/b1c2c5194ba26a76e181860a481e1d07.png)
Input File: 01 - Who the Hell Do You Think You Are.mp3
Channels : 2
Sample Rate : 44100
Precision : 16-bit
Duration : 00:02:56.48 = 7782900 samples = 13236.2 CDDA sectors
File Size : 4.65M
Bit Rate : 211k
Sample Encoding: MPEG audio (layer I, II or III)
Comments :
Title=Who the Hell Do You Think You Are
Artist=Swamp Baby, Hugh Dillon
Album=Hard Core Logo - Soundtrack
Tracknumber=1/12
Year=1998
Genre=Punk
Discnumber=1 / 1



Register


Thanks:
Go to the top of the page
  Insert nick Quick quote
+Quote Post

Reply to this topicStart new topic
1 User(s) are reading this topic (1 Guests and 0 Anonymous Users)
0 Members:

 



- Lo-Fi Version Support form
Copyrights and abuse reports form
Time is now: 15th September 2019 - 18:58:46